Subcategories

The Buddy DeFranco Quintet - Cooking The Blues (1955) {2013 Japan Jazz The Best Series 24bit Remaster UCCU-9763}

Posted By: ruskaval
The Buddy DeFranco Quintet - Cooking The Blues (1955) {2013 Japan Jazz The Best Series 24bit Remaster UCCU-9763}

The Buddy De Franco Quintet - Cooking The Blues (1955) {2013 Japan Jazz The Best Series 24bit Remaster UCCU-9763}
EAC rip (secure mode) | FLAC (tracks)+CUE+LOG -> 230 Mb | MP3 @320 -> 90 Mb
Full Artwork @ 600 dpi (jpg) -> 102 Mb | 5% repair rar | 24bit remaster
© 1955, 2013 Verve / Universal Japan | UCCU-9763 | Verve LP NG V-8221
Jazz / Bop / Clarinet

A great one from Buddy DeFranco — exactly the kind of record that will make you understand why jazz collectors have always prized his Verve Records work so much ! Although Buddy's given instrument, the clarinet, was one that was handled by so many others at the time in kind of an outmoded way — DeFranco always managed to keep things fresh and modern, drawing heavily on bop inspiration for a record like this, yet also remaining true to his roots too.

Part of the strength of the record is the group, too – given that Sonny Clark is on piano, bringing in a mighty soulful undercurrent to the rhythm section, and even playing a bit of organ too ! Tal Farlow brings in some nice guitar — and the group's completed by Gene Wright on bass and Bobby White on drums — on titles that include "Indian Summer", "Cooking The Blues", "Stardust", and "How About You".
The Buddy DeFranco Quintet - Cooking The Blues (1955) {2013 Japan Jazz The Best Series 24bit Remaster UCCU-9763}


Personnel:
Buddy De Franco - clarinet
Sonny Clark - piano and organ
Tal Farlow - guitar
Gene Wright - bass
Bobby White - drums

Recorded in Los Angeles, CA, on August 26, 1955

tracklist:
01 - I Can't Get Started
02 - Cooking The Blues
03 - Stardust
04 - How About You
05 - Little Girl Blue
06 - Indian Summer

Exact Audio Copy V1.1 from 23. June 2015

EAC extraction logfile from 11. April 2016, 9:47

The Buddy De Franco Quintet / Cooking The Blues

Used drive : TSSTcorpCDDVDW SE-208DB Adapter: 1 ID: 0

Read mode : Secure
Utilize accurate stream : Yes
Defeat audio cache : Yes
Make use of C2 pointers : No

Read offset correction : 6
Overread into Lead-In and Lead-Out : No
Fill up missing offset samples with silence : Yes
Delete leading and trailing silent blocks : No
Null samples used in CRC calculations : Yes
Used interface : Native Win32 interface for Win NT & 2000
Gap handling : Appended to previous track

Used output format : User Defined Encoder
Selected bitrate : 1024 kBit/s
Quality : High
Add ID3 tag : No
Command line compressor : C:\Program Files (x86)\FLAC Frontend\tools\flac.exe
Additional command line options : -8 -V -T "ARTIST=%artist%" -T "TITLE=%title%" -T "ALBUM=%albumtitle%" -T "DATE=%year%" -T "TRACKNUMBER=%tracknr%" -T "TOTALTRACKS=%numtracks%" -T "GENRE=%genre%" -T "ALBUMARTIST=%albumartist%" -T "ALBUM ARTIST=%albumartist%" -T "COMMENT=EAC Secure Mode, Test & Copy, AccurateRip, FLAC -8" %source%


TOC of the extracted CD

Track | Start | Length | Start sector | End sector
––––––––––––––––––––––––––––-
1 | 0:00.00 | 5:39.12 | 0 | 25436
2 | 5:39.12 | 7:01.40 | 25437 | 57051
3 | 12:40.52 | 6:08.55 | 57052 | 84706
4 | 18:49.32 | 6:51.58 | 84707 | 115589
5 | 25:41.15 | 5:06.67 | 115590 | 138606
6 | 30:48.07 | 6:49.33 | 138607 | 169314


Track 1

Filename D:\_EAC\The Buddy De Franco Quintet - Cooking The Blues (1955) [FLAC] {UCCU-9763}\01 - I Can't Get Started.wav

Pre-gap length 0:00:02.00

Peak level 92.0 %
Extraction speed 3.0 X
Track quality 100.0 %
Test CRC 03063A2E
Copy CRC 03063A2E
Accurately ripped (confidence 4) [C52375E8] (AR v2)
Copy OK

Track 2

Filename D:\_EAC\The Buddy De Franco Quintet - Cooking The Blues (1955) [FLAC] {UCCU-9763}\02 - Cooking The Blues.wav

Peak level 86.8 %
Extraction speed 3.6 X
Track quality 100.0 %
Test CRC C74BEC1B
Copy CRC C74BEC1B
Accurately ripped (confidence 4) [6D231986] (AR v2)
Copy OK

Track 3

Filename D:\_EAC\The Buddy De Franco Quintet - Cooking The Blues (1955) [FLAC] {UCCU-9763}\03 - Stardust.wav

Peak level 76.7 %
Extraction speed 4.0 X
Track quality 100.0 %
Test CRC E255FAA1
Copy CRC E255FAA1
Accurately ripped (confidence 4) [F171CB46] (AR v2)
Copy OK

Track 4

Filename D:\_EAC\The Buddy De Franco Quintet - Cooking The Blues (1955) [FLAC] {UCCU-9763}\04 - How About You.wav

Peak level 84.5 %
Extraction speed 4.4 X
Track quality 100.0 %
Test CRC E81AE918
Copy CRC E81AE918
Accurately ripped (confidence 4) [71A6C1DC] (AR v2)
Copy OK

Track 5

Filename D:\_EAC\The Buddy De Franco Quintet - Cooking The Blues (1955) [FLAC] {UCCU-9763}\05 - Little Girl Blue.wav

Peak level 74.4 %
Extraction speed 4.5 X
Track quality 100.0 %
Test CRC 47C566AF
Copy CRC 47C566AF
Accurately ripped (confidence 4) [7FEB4152] (AR v2)
Copy OK

Track 6

Filename D:\_EAC\The Buddy De Franco Quintet - Cooking The Blues (1955) [FLAC] {UCCU-9763}\06 - Indian Summer.wav

Peak level 80.5 %
Extraction speed 4.9 X
Track quality 100.0 %
Test CRC D2FFA0ED
Copy CRC D2FFA0ED
Accurately ripped (confidence 4) [C3C84BCD] (AR v2)
Copy OK


All tracks accurately ripped

No errors occurred

End of status report

==== Log checksum A05B636A11EBE0DAAEA9422B1BF9F2493AFA904ACA09EEE978988716EF63A885 ====


The Buddy DeFranco Quintet - Cooking The Blues (1955) {2013 Japan Jazz The Best Series 24bit Remaster UCCU-9763}

The Buddy DeFranco Quintet - Cooking The Blues (1955) {2013 Japan Jazz The Best Series 24bit Remaster UCCU-9763}


More Japan Jazz The Best Series…


===