Subcategories

Butthole Surfers - Independent Worm Saloon (Capitol Rec. 0777 7 98798 2 3) (UK 1993)

Posted By: luckburz
Butthole Surfers - Independent Worm Saloon (Capitol Rec. 0777 7 98798 2 3) (UK 1993)

Butthole Surfers - Independent Worm Saloon (Capitol Rec. 0777 7 98798 2 3) (UK 1993)
1993 | FLAC | EAC, LOG & CUE | 300dpi Artwork Scans | 468 MB

MD5 [] FFP [] CUE [X] LOG [X] INFO TEXT [X] ARTWORK [X]

webfind [X] selfrip []

Extraction Log:

Exact Audio Copy V0.99 prebeta 4 from 23. January 2008

EAC Auslese-Logdatei vom 29. April 2009, 9:45

Butthole Surfers / Independent Worm Saloon (Capitol Rec. 0777 7 98798 2 3) (UK 1993)

Benutztes Laufwerk : HL-DT-STDVDRAM GSA-H12L Adapter: 0 ID: 1

Lesemodus : Sicher
Benutze Accurate Stream : Ja
Audio Puffer abgeschaltet : Nein
Benutze C2 Fehlerinformationen : Nein

Leseoffset Korrektur : 667
Überlesen in das Lead-In und Lead-Out : Nein
Fülle fehlende Offsetsample mit Stille auf : Ja
Lösche führende und nachfolgende stille Blöcke : Nein
Null Samples gehen in CRC Berechnungen ein : Ja
Benutzte Schnittstelle : Natürliche Win32 Schnittstelle für Win NT/2000/XP
Pausenbehandlung : Hinter dem vorigen Track angehängt

Benutztes Ausgabeformat : Benutzerdefinierter Komprimierer
Gewählte Bitrate : 1024 kBit/s
Qualität : Hoch
Füge ID3 Tag hinzu : Ja
Kommandozeilen Komprimierer : C:\Programme\FLAC\flac.exe
Zusätzliche Kommandozeilenoptionen : -5 -T "Artist=%a" -T "Title=%t" -T "Album=%g" -T "Date=%y" -T "Tracknumber=%n" -T "Genre=%m" %s -o %d


TOC der ausgelesenen CD

Track | Start | Länge | Startsektor | Endsektor
–––––––––––––––––––––––––––-
1 | 0:00.32 | 4:09.00 | 32 | 18706
2 | 4:09.32 | 3:50.55 | 18707 | 36011
3 | 8:00.12 | 2:06.45 | 36012 | 45506
4 | 10:06.57 | 0:43.73 | 45507 | 48804
5 | 10:50.55 | 3:03.35 | 48805 | 62564
6 | 13:54.15 | 3:19.40 | 62565 | 77529
7 | 17:13.55 | 3:06.10 | 77530 | 91489
8 | 20:19.65 | 4:08.50 | 91490 | 110139
9 | 24:28.40 | 2:06.15 | 110140 | 119604
10 | 26:34.55 | 2:59.40 | 119605 | 133069
11 | 29:34.20 | 2:41.20 | 133070 | 145164
12 | 32:15.40 | 2:40.35 | 145165 | 157199
13 | 34:56.00 | 6:39.47 | 157200 | 187171
14 | 41:35.47 | 2:25.60 | 187172 | 198106
15 | 44:01.32 | 3:34.40 | 198107 | 214196
16 | 47:35.72 | 6:05.33 | 214197 | 241604
17 | 53:41.30 | 8:39.17 | 241605 | 280546


Track 1

Dateiname V:\INCOMING\LOSSLESS\ZZZ-EAC\01 Who Was In My Room Last Night .wav

Pausenlänge 0:00:02.32

Spitzenpegel 100.0 %
Track Qualität 100.0 %
Test CRC 60DEAA1E
Kopie CRC 60DEAA1E
Akkurat gelesen (Zuversicht 11) [F68D51C4]
Kopie OK

Track 2

Dateiname V:\INCOMING\LOSSLESS\ZZZ-EAC\02 The Wooden Song.wav

Pausenlänge 0:00:00.70

Spitzenpegel 100.0 %
Track Qualität 100.0 %
Test CRC 6EE06637
Kopie CRC 6EE06637
Akkurat gelesen (Zuversicht 11) [C0788EA0]
Kopie OK

Track 3

Dateiname V:\INCOMING\LOSSLESS\ZZZ-EAC\03 Tongue.wav

Pausenlänge 0:00:01.50

Spitzenpegel 100.0 %
Track Qualität 100.0 %
Test CRC 2C6C28AA
Kopie CRC 2C6C28AA
Akkurat gelesen (Zuversicht 12) [8ADC3E65]
Kopie OK

Track 4

Dateiname V:\INCOMING\LOSSLESS\ZZZ-EAC\04 Chewin' George Lucas' Chocolate.wav

Pausenlänge 0:00:00.25

Spitzenpegel 64.9 %
Track Qualität 100.0 %
Test CRC D963E6E4
Kopie CRC D963E6E4
Akkurat gelesen (Zuversicht 12) [210CB2F4]
Kopie OK

Track 5

Dateiname V:\INCOMING\LOSSLESS\ZZZ-EAC\05 Goofy's Concern.wav

Spitzenpegel 100.0 %
Track Qualität 100.0 %
Test CRC 38A3BB5D
Kopie CRC 38A3BB5D
Akkurat gelesen (Zuversicht 12) [81B7157D]
Kopie OK

Track 6

Dateiname V:\INCOMING\LOSSLESS\ZZZ-EAC\06 Alcohol.wav

Pausenlänge 0:00:00.33

Spitzenpegel 100.0 %
Track Qualität 100.0 %
Test CRC 411CD677
Kopie CRC 411CD677
Akkurat gelesen (Zuversicht 12) [39CDD9AF]
Kopie OK

Track 7

Dateiname V:\INCOMING\LOSSLESS\ZZZ-EAC\07 Dog Inside Your Body.wav

Pausenlänge 0:00:01.18

Spitzenpegel 100.0 %
Track Qualität 100.0 %
Test CRC 921443ED
Kopie CRC 921443ED
Akkurat gelesen (Zuversicht 12) [8AEB0ECD]
Kopie OK

Track 8

Dateiname V:\INCOMING\LOSSLESS\ZZZ-EAC\08 Strawberry.wav

Pausenlänge 0:00:00.38

Spitzenpegel 100.0 %
Track Qualität 100.0 %
Test CRC 971B6202
Kopie CRC 971B6202
Akkurat gelesen (Zuversicht 12) [C5D09F23]
Kopie OK

Track 9

Dateiname V:\INCOMING\LOSSLESS\ZZZ-EAC\09 Some Dispute Over T-Shirt Sales.wav

Pausenlänge 0:00:01.43

Spitzenpegel 100.0 %
Track Qualität 100.0 %
Test CRC FC3275E2
Kopie CRC FC3275E2
Akkurat gelesen (Zuversicht 11) [64934779]
Kopie OK

Track 10

Dateiname V:\INCOMING\LOSSLESS\ZZZ-EAC\10 Dancing Fool.wav

Pausenlänge 0:00:01.00

Spitzenpegel 100.0 %
Track Qualität 100.0 %
Test CRC 274C71CC
Kopie CRC 274C71CC
Akkurat gelesen (Zuversicht 12) [B2FD87C0]
Kopie OK

Track 11

Dateiname V:\INCOMING\LOSSLESS\ZZZ-EAC\11 You Don't Know Me.wav

Pausenlänge 0:00:01.35

Spitzenpegel 100.0 %
Track Qualität 100.0 %
Test CRC BCA740B8
Kopie CRC BCA740B8
Akkurat gelesen (Zuversicht 12) [7FBBF659]
Kopie OK

Track 12

Dateiname V:\INCOMING\LOSSLESS\ZZZ-EAC\12 The Annoying Song.wav

Pausenlänge 0:00:00.13

Spitzenpegel 100.0 %
Track Qualität 100.0 %
Test CRC 687CA33D
Kopie CRC 687CA33D
Akkurat gelesen (Zuversicht 12) [2A3A0DD8]
Kopie OK

Track 13

Dateiname V:\INCOMING\LOSSLESS\ZZZ-EAC\13 Dust Devil.wav

Pausenlänge 0:00:01.68

Spitzenpegel 100.0 %
Track Qualität 100.0 %
Test CRC C20DD408
Kopie CRC C20DD408
Akkurat gelesen (Zuversicht 12) [8ED5E09B]
Kopie OK

Track 14

Dateiname V:\INCOMING\LOSSLESS\ZZZ-EAC\14 Leave Me Alone.wav

Pausenlänge 0:00:01.47

Spitzenpegel 100.0 %
Track Qualität 99.9 %
Test CRC 711B1E88
Kopie CRC 711B1E88
Akkurat gelesen (Zuversicht 12) [492777B1]
Kopie OK

Track 15

Dateiname V:\INCOMING\LOSSLESS\ZZZ-EAC\15 Edgar.wav

Pausenlänge 0:00:01.55

Spitzenpegel 100.0 %
Track Qualität 99.9 %
Test CRC C8C60B5B
Kopie CRC C8C60B5B
Akkurat gelesen (Zuversicht 12) [4110B731]
Kopie OK

Track 16

Dateiname V:\INCOMING\LOSSLESS\ZZZ-EAC\16 The Ballad Of Naked Man.wav

Pausenlänge 0:00:00.37

Spitzenpegel 93.9 %
Track Qualität 100.0 %
Test CRC 8CC59DFD
Kopie CRC 8CC59DFD
Akkurat gelesen (Zuversicht 12) [6C658399]
Kopie OK

Track 17

Dateiname V:\INCOMING\LOSSLESS\ZZZ-EAC\17 Clean It Up.wav

Pausenlänge 0:00:01.33

Spitzenpegel 100.0 %
Track Qualität 100.0 %
Test CRC B0835D9B
Kopie CRC B0835D9B
Akkurat gelesen (Zuversicht 11) [BBD3BF30]
Kopie OK


Alle Tracks wurden akkurat gelesen

Keine Fehler aufgetreten

Ende des Statusreports


CD Info:

Butthole Surfers - Independent Worm Saloon

Label: Capitol Records
Catalog#: 0777 7 98798 2 3
Format: CD, Album
Country: UK
Released: 1993
Genre: Rock
Style: Alternative Rock
Producer: John Paul Jones
Notes: Published by Latino Buggerveil Music (Ascap)


Tracklisting:
1 Who Was In My Room Last Night? (4:09)
2 The Wooden Song (3:50)
3 Tongue (2:06)
4 Chewin' George Lucas' Chocolate (0:43)
5 Goofy's Concern (3:03)
6 Alcohol (3:19)
7 Dog Inside Your Body (3:06)
8 Strawberry (4:08)
9 Some Dispute Over T-Shirt Sales (2:06)
10 Dancing Fool (2:59)
11 You Don't Know Me (2:41)
12 The Annoying Song (2:40)
13 Dust Devil (6:39)
14 Leave Me Alone (2:25)
15 Edgar (3:34)
16 The Ballad Of Naked Man (6:05)
17 Clean It Up (8:39)

Band Info:

The Butthole Surfers are an American alternative rock band formed by Gibby Haynes and Paul Leary in San Antonio, Texas in 1981. The band has had numerous personnel changes, but the core lineup of Haynes, Leary, and drummer King Coffey has been together since 1983. Teresa Nervosa served as second drummer from 1983 to 1985 and from 1986 to 1989, and they have employed a variety of bass players, most notably Bill Jolly and Jeff Pinkus.[1]

The Buttholes are best known for their chaotic and disturbing live shows, black humor, a sound that incorporates elements of punk rock, psychedelia, heavy metal, noise rock, and electronica, as well as their use of sound manipulation and tape editing.[2][3] The Buttholes have a well-reported appetite for recreational drugs, particularly psychedelics, an evident influence on their sound.[4]

Although they were respected by their peers and attracted a devoted fan base, the Butthole Surfers had little commercial success until 1996’s Electriclarryland, their only gold record to date.[5] The album contained the hit single “Pepper” which climbed to number one on Billboard's Modern Rock Tracks chart that year. wikipedia

Format:

Flac (Compression Level 8)

Links:

[rapidshare.com/200 MB Splits]

via secured.in

http://secured.in/download-323279-30c4f44a.html

via stealth.to
incl. .dlc, .ccf, .rsdf

http://stealth.to/?id=asfytoqft2t3xm38f22g45asijajgayeq4


Password:

finest-hq-audio



MIRRORS ARE WELCOME BUT NOT ON RAPIDSHARE! Thanks.

If you have problems getting the links from the encrypters, please check if a pop-up is blocked or java is disabled. Both must be allowed!

If you have still problems after that, please write me a message - also if something happens to be down. Thanks.



––> I SUGGEST TO ALL WHO HAVE PROBLEMS USING SECURED.IN or want to download automated with the rsdf (AND ALL OTHERS TOO…) <––
––> TO USE THE FREE DOWNLOAD MANAGER "JDOWNLOADER" <––
––> (DOWNLOAD HERE: http://jdownloader.org/news?lng=en) <––
––> THIS ONE CAN ALSO HANDLE THE RSDF FILE AND DECRYPTS LINK ENCRYPTER PAGES AUTOMATICALLY! <––
––> BELIEVE IN ME, IT WILL MAKE RAPIDSHARE MUCH EASIER! <––