Subcategories

The Byrds - Untitled & Unissued [Columbia 495077 2] {1970, 2 CD Legacy Edition 2000} (Reuploaded)

Posted By: luckburz
The Byrds - Untitled & Unissued [Columbia 495077 2] {1970, 2 CD Legacy Edition 2000} (Reuploaded)

The Byrds - Untitled & Unissued
EAC+LOG+CUE | FLAC: 753 MB | Full Artwork | 5% Recovery Info
Label/Cat#: Columbia / Legacy # 495077 2 | Country/Year: Europe 2000, 1970
Genre: Rock | Style: Classic Rock, Country Rock

MD5 [] CUE [X] LOG [X] INFO TEXT [X] ARTWORK [X]

selfrip [X] not my rip []

The Byrds - Untitled & Unissued [Columbia 495077 2] {1970, 2 CD Legacy Edition 2000} (Reuploaded)


Exact Audio Copy V0.99 prebeta 4 from 23. January 2008

EAC extraction logfile from 11. March 2008, 14:49

The Byrds / Untitled

Used drive : HL-DT-STDVDRAM GSA-H12L Adapter: 0 ID: 1

Read mode : Secure
Utilize accurate stream : Yes
Defeat audio cache : No
Make use of C2 pointers : No

Read offset correction : 667
Overread into Lead-In and Lead-Out : No
Fill up missing offset samples with silence : Yes
Delete leading and trailing silent blocks : No
Null samples used in CRC calculations : Yes
Used interface : Native Win32 interface for Win NT & 2000
Gap handling : Appended to previous track

Used output format : Internal WAV Routines
Sample format : 44.100 Hz; 16 Bit; Stereo


TOC of the extracted CD

Track | Start | Length | Start sector | End sector
––––––––––––––––––––––––––––-
1 | 0:00.00 | 3:38.67 | 0 | 16416
2 | 3:38.67 | 3:03.35 | 16417 | 30176
3 | 6:42.27 | 2:07.23 | 30177 | 39724
4 | 8:49.50 | 2:38.15 | 39725 | 51589
5 | 11:27.65 | 2:13.62 | 51590 | 61626
6 | 13:41.52 | 3:07.55 | 61627 | 75706
7 | 16:49.32 | 16:07.23 | 75707 | 148254
8 | 32:56.55 | 5:11.37 | 148255 | 171616
9 | 38:08.17 | 3:24.00 | 171617 | 186916
10 | 41:32.17 | 3:08.00 | 186917 | 201016
11 | 44:40.17 | 3:35.38 | 201017 | 217179
12 | 48:15.55 | 4:56.37 | 217180 | 239416
13 | 53:12.17 | 3:57.00 | 239417 | 257191
14 | 57:09.17 | 3:29.00 | 257192 | 272866
15 | 60:38.17 | 3:06.38 | 272867 | 286854
16 | 63:44.55 | 7:40.22 | 286855 | 321376


Track 1

Filename V:\INCOMING\LOSSLESS\ZZZ-EAC\01 Lover Of The Bayou (Live).wav

Pre-gap length 0:00:02.00

Peak level 94.3 %
Track quality 100.0 %
Test CRC 86A7D455
Copy CRC 86A7D455
Accurately ripped (confidence 3) [EF78F9C1]
Copy OK

Track 2

Filename V:\INCOMING\LOSSLESS\ZZZ-EAC\02 Positively 4th Street (Live).wav

Peak level 80.8 %
Track quality 100.0 %
Test CRC 923E4CBD
Copy CRC 923E4CBD
Accurately ripped (confidence 3) [DEC78811]
Copy OK

Track 3

Filename V:\INCOMING\LOSSLESS\ZZZ-EAC\03 Nashville West (Live).wav

Peak level 100.0 %
Track quality 100.0 %
Test CRC 1ABE3FA3
Copy CRC 1ABE3FA3
Accurately ripped (confidence 3) [7CA8CD32]
Copy OK

Track 4

Filename V:\INCOMING\LOSSLESS\ZZZ-EAC\04 So You Want To Be A Rock´N`Roll Star (Live).wav

Peak level 84.1 %
Track quality 100.0 %
Test CRC 413A8344
Copy CRC 413A8344
Accurately ripped (confidence 3) [A89D965F]
Copy OK

Track 5

Filename V:\INCOMING\LOSSLESS\ZZZ-EAC\05 Mr. Tambourine Man (Live).wav

Peak level 92.2 %
Track quality 99.9 %
Test CRC 2095821D
Copy CRC 2095821D
Accurately ripped (confidence 3) [F207DA1B]
Copy OK

Track 6

Filename V:\INCOMING\LOSSLESS\ZZZ-EAC\06 Mr. Spaceman (Live).wav

Peak level 100.0 %
Track quality 100.0 %
Test CRC 1882E52C
Copy CRC 1882E52C
Accurately ripped (confidence 3) [A6EBD13A]
Copy OK

Track 7

Filename V:\INCOMING\LOSSLESS\ZZZ-EAC\07 Eight Miles High (Live).wav

Pre-gap length 0:00:00.27

Peak level 100.0 %
Track quality 99.9 %
Test CRC EE456AF5
Copy CRC EE456AF5
Accurately ripped (confidence 3) [4455B1EB]
Copy OK

Track 8

Filename V:\INCOMING\LOSSLESS\ZZZ-EAC\08 Chestnut Mare.wav

Pre-gap length 0:00:04.70

Peak level 100.0 %
Track quality 99.9 %
Test CRC 6BA9484D
Copy CRC 6BA9484D
Accurately ripped (confidence 3) [AA433878]
Copy OK

Track 9

Filename V:\INCOMING\LOSSLESS\ZZZ-EAC\09 Truck Stop Girl.wav

Pre-gap length 0:00:02.55

Peak level 96.6 %
Track quality 100.0 %
Test CRC 395F2ACB
Copy CRC 395F2ACB
Accurately ripped (confidence 3) [744AD51C]
Copy OK

Track 10

Filename V:\INCOMING\LOSSLESS\ZZZ-EAC\10 All The Things.wav

Pre-gap length 0:00:03.52

Peak level 100.0 %
Track quality 100.0 %
Test CRC F47BBF9C
Copy CRC F47BBF9C
Accurately ripped (confidence 3) [2ACE61A3]
Copy OK

Track 11

Filename V:\INCOMING\LOSSLESS\ZZZ-EAC\11 Yesterday´s Train.wav

Pre-gap length 0:00:05.05

Peak level 89.9 %
Track quality 99.9 %
Test CRC C370B4F3
Copy CRC C370B4F3
Accurately ripped (confidence 3) [C3F27C4B]
Copy OK

Track 12

Filename V:\INCOMING\LOSSLESS\ZZZ-EAC\12 Hungry Planet.wav

Pre-gap length 0:00:04.55

Peak level 85.1 %
Track quality 100.0 %
Test CRC 0CA5F3BD
Copy CRC 0CA5F3BD
Accurately ripped (confidence 3) [9A3DBDD8]
Copy OK

Track 13

Filename V:\INCOMING\LOSSLESS\ZZZ-EAC\13 Just A Season.wav

Pre-gap length 0:00:04.05

Peak level 97.2 %
Track quality 100.0 %
Test CRC BCEC9D14
Copy CRC BCEC9D14
Accurately ripped (confidence 3) [37EFB7C8]
Copy OK

Track 14

Filename V:\INCOMING\LOSSLESS\ZZZ-EAC\14 Take A Whiff On Me.wav

Pre-gap length 0:00:04.30

Peak level 100.0 %
Track quality 100.0 %
Test CRC 1F569CDB
Copy CRC 1F569CDB
Accurately ripped (confidence 3) [C9C44AD3]
Copy OK

Track 15

Filename V:\INCOMING\LOSSLESS\ZZZ-EAC\15 You All Look Alike.wav

Pre-gap length 0:00:03.05

Peak level 100.0 %
Track quality 100.0 %
Test CRC 7179C574
Copy CRC 7179C574
Accurately ripped (confidence 3) [F3BA987E]
Copy OK

Track 16

Filename V:\INCOMING\LOSSLESS\ZZZ-EAC\16 Welcome Back Home.wav

Pre-gap length 0:00:03.00

Peak level 99.9 %
Track quality 100.0 %
Test CRC CBCD60D6
Copy CRC CBCD60D6
Accurately ripped (confidence 3) [937E342D]
Copy OK


All tracks accurately ripped

No errors occurred

End of status report

Exact Audio Copy V0.99 prebeta 4 from 23. January 2008

EAC extraction logfile from 11. March 2008, 15:40

The Byrds / Unissued

Used drive : HL-DT-STDVDRAM GSA-H12L Adapter: 0 ID: 1

Read mode : Secure
Utilize accurate stream : Yes
Defeat audio cache : No
Make use of C2 pointers : No

Read offset correction : 667
Overread into Lead-In and Lead-Out : No
Fill up missing offset samples with silence : Yes
Delete leading and trailing silent blocks : No
Null samples used in CRC calculations : Yes
Used interface : Native Win32 interface for Win NT & 2000
Gap handling : Appended to previous track

Used output format : Internal WAV Routines
Sample format : 44.100 Hz; 16 Bit; Stereo


TOC of the extracted CD

Track | Start | Length | Start sector | End sector
––––––––––––––––––––––––––––-
1 | 0:00.00 | 4:58.02 | 0 | 22351
2 | 4:58.02 | 4:11.23 | 22352 | 41199
3 | 9:09.25 | 5:14.40 | 41200 | 64789
4 | 14:23.65 | 2:37.12 | 64790 | 76576
5 | 17:01.02 | 2:22.23 | 76577 | 87249
6 | 19:23.25 | 3:32.65 | 87250 | 103214
7 | 22:56.15 | 2:56.37 | 103215 | 116451
8 | 25:52.52 | 3:30.00 | 116452 | 132201
9 | 29:22.52 | 2:48.43 | 132202 | 144844
10 | 32:11.20 | 2:21.67 | 144845 | 155486
11 | 34:33.12 | 2:41.15 | 155487 | 167576
12 | 37:14.27 | 2:45.38 | 167577 | 179989
13 | 39:59.65 | 3:09.02 | 179990 | 194166
14 | 43:08.67 | 6:16.18 | 194167 | 222384


Track 1

Filename V:\INCOMING\LOSSLESS\ZZZ-EAC\01 All The Things (Alternate Version).wav

Pre-gap length 0:00:02.00

Peak level 100.0 %
Track quality 100.0 %
Test CRC B7178FA3
Copy CRC B7178FA3
Cannot be verified as accurate (confidence 3) [4F41BEC9], AccurateRip returned [7B979F6E]
Copy OK

Track 2

Filename V:\INCOMING\LOSSLESS\ZZZ-EAC\02 Yesterday´s Train (Alternate Version).wav

Pre-gap length 0:00:01.25

Peak level 84.3 %
Track quality 100.0 %
Test CRC A0646DF0
Copy CRC A0646DF0
Cannot be verified as accurate (confidence 3) [88659BE3], AccurateRip returned [E7D35B69]
Copy OK

Track 3

Filename V:\INCOMING\LOSSLESS\ZZZ-EAC\03 Lover Of The Bayou (Studio Version).wav

Peak level 94.3 %
Track quality 100.0 %
Test CRC 0713A4FB
Copy CRC 0713A4FB
Cannot be verified as accurate (confidence 3) [601366C8], AccurateRip returned [053DFD8A]
Copy OK

Track 4

Filename V:\INCOMING\LOSSLESS\ZZZ-EAC\04 Kathleen´s Song (Alternate Version).wav

Pre-gap length 0:00:01.65

Peak level 100.0 %
Track quality 100.0 %
Test CRC C6AA0A0A
Copy CRC C6AA0A0A
Cannot be verified as accurate (confidence 3) [52BE9F80], AccurateRip returned [55AA37B2]
Copy OK

Track 5

Filename V:\INCOMING\LOSSLESS\ZZZ-EAC\05 White´s Lightning Part 2 (Studio Recording).wav

Pre-gap length 0:00:03.07

Peak level 100.0 %
Track quality 100.0 %
Test CRC 3E2CCC98
Copy CRC 3E2CCC98
Cannot be verified as accurate (confidence 3) [C0A67086], AccurateRip returned [81167372]
Copy OK

Track 6

Filename V:\INCOMING\LOSSLESS\ZZZ-EAC\06 Willin´ (Studio Recording).wav

Pre-gap length 0:00:01.38

Peak level 99.9 %
Track quality 99.9 %
Test CRC 4E8A8172
Copy CRC 4E8A8172
Cannot be verified as accurate (confidence 3) [D031FDCA], AccurateRip returned [BCF6D7E7]
Copy OK

Track 7

Filename V:\INCOMING\LOSSLESS\ZZZ-EAC\07 You Ain´t Goin´ Nowhere (Live).wav

Pre-gap length 0:00:04.45

Peak level 94.6 %
Track quality 100.0 %
Test CRC 1B93C3CF
Copy CRC 1B93C3CF
Cannot be verified as accurate (confidence 3) [C1CE7C29], AccurateRip returned [B7152496]
Copy OK

Track 8

Filename V:\INCOMING\LOSSLESS\ZZZ-EAC\08 Old Blue (Live).wav

Peak level 96.6 %
Track quality 100.0 %
Test CRC 54D5AE0B
Copy CRC 54D5AE0B
Cannot be verified as accurate (confidence 3) [81C76744], AccurateRip returned [9EDFE316]
Copy OK

Track 9

Filename V:\INCOMING\LOSSLESS\ZZZ-EAC\09 It´s Alright Ma (I´m Only Bleeding) (Live).wav

Peak level 65.3 %
Track quality 100.0 %
Test CRC F539AE20
Copy CRC F539AE20
Cannot be verified as accurate (confidence 3) [017BF4B0], AccurateRip returned [AAE1E355]
Copy OK

Track 10

Filename V:\INCOMING\LOSSLESS\ZZZ-EAC\10 Ballad Of Easy Rider (Live).wav

Peak level 71.5 %
Track quality 100.0 %
Test CRC 81E8130B
Copy CRC 81E8130B
Cannot be verified as accurate (confidence 3) [4FB6E82C], AccurateRip returned [D754D103]
Copy OK

Track 11

Filename V:\INCOMING\LOSSLESS\ZZZ-EAC\11 My Back Pages (Live).wav

Peak level 91.2 %
Track quality 100.0 %
Test CRC 228DC80F
Copy CRC 228DC80F
Cannot be verified as accurate (confidence 3) [A8415C76], AccurateRip returned [2D90FA1B]
Copy OK

Track 12

Filename V:\INCOMING\LOSSLESS\ZZZ-EAC\12 Take A Whiff On Me (Live).wav

Peak level 89.2 %
Track quality 100.0 %
Test CRC 2BDE59E0
Copy CRC 2BDE59E0
Cannot be verified as accurate (confidence 3) [767ACF2E], AccurateRip returned [E506758A]
Copy OK

Track 13

Filename V:\INCOMING\LOSSLESS\ZZZ-EAC\13 Jesus Is Just Alright (Live).wav

Peak level 84.1 %
Track quality 100.0 %
Test CRC 58E5CB4C
Copy CRC 58E5CB4C
Cannot be verified as accurate (confidence 3) [ACE62127], AccurateRip returned [F0FB2216]
Copy OK

Track 14

Filename V:\INCOMING\LOSSLESS\ZZZ-EAC\14 This Wheel´s On Fire (Live).wav

Peak level 97.1 %
Track quality 99.9 %
Test CRC 1FF0470D
Copy CRC 1FF0470D
Cannot be verified as accurate (confidence 3) [51AAE191], AccurateRip returned [765C7CBD]
Copy OK


No tracks could be verified as accurate
You may have a different pressing from the one(s) in the database

No errors occurred

End of status report

foobar2000 1.1.14a / Dynamic Range Meter 1.1.1
log date: 2013-01-22 13:59:14

––––––––––––––––––––––––––––––––––––––––
Analyzed: The Byrds / Untitled / Unissued (2CD Legacy Edition)
––––––––––––––––––––––––––––––––––––––––

DR Peak RMS Duration Track
––––––––––––––––––––––––––––––––––––––––
DR12 -0.51 dB -13.41 dB 3:39 01-Lover Of The Bayou
DR10 -1.84 dB -13.06 dB 3:03 02-Positively 4th Street
DR12 0.00 dB -13.54 dB 2:07 03-Nashville West
DR10 -1.50 dB -12.90 dB 2:38 04-So You Want To Be A Rock 'N Roll Star
DR10 -0.70 dB -12.63 dB 2:14 05-Mr. Tambourine Man
DR11 0.00 dB -12.46 dB 3:08 06-Mr. Spaceman
DR11 0.00 dB -13.51 dB 16:07 07-Eight Miles High
DR11 0.00 dB -13.77 dB 5:11 08-Chestnut Mare
DR12 -0.30 dB -13.68 dB 3:24 09-Truck Stop Girl
DR11 0.00 dB -14.31 dB 3:08 10-All The Things
DR10 -0.92 dB -14.13 dB 3:36 11-Yesterday's Train
DR10 -1.40 dB -14.06 dB 4:56 12-Hungry Planet
DR11 -0.25 dB -12.73 dB 3:57 13-Just A Season
DR12 0.00 dB -13.38 dB 3:29 14-Take A Whiff On Me
DR11 0.00 dB -13.26 dB 3:07 15-You All Look Alike
DR13 0.00 dB -15.16 dB 7:40 16-Well Come Back Home
––––––––––––––––––––––––––––––––––––––––

Number of tracks: 16
Official DR value: DR11

Samplerate: 44100 Hz
Channels: 2
Bits per sample: 16
Bitrate: 886 kbps
Codec: FLAC
================================================================================

foobar2000 1.1.14a / Dynamic Range Meter 1.1.1
log date: 2013-01-22 13:59:26

––––––––––––––––––––––––––––––––––––––––
Analyzed: The Byrds / Untitled / Unissued (2CD Legacy Edition)
––––––––––––––––––––––––––––––––––––––––

DR Peak RMS Duration Track
––––––––––––––––––––––––––––––––––––––––
DR11 0.00 dB -12.64 dB 4:58 01-All The Things {alt}
DR10 -1.48 dB -14.64 dB 4:11 02-Yesterday's Train {alt}
DR11 -0.51 dB -12.73 dB 5:15 03-Lover Of The Bayou
DR10 0.00 dB -14.50 dB 2:37 04-Kathleen's Song {alt}
DR14 0.00 dB -15.59 dB 2:22 05-White's Lightning Pt. 2
DR13 0.00 dB -15.22 dB 3:33 06-Willin'
DR11 -0.48 dB -13.32 dB 2:56 07-You Ain't Goin' Nowhere {live}
DR10 -0.29 dB -12.40 dB 3:30 08-Old Blue {live}
DR10 -3.70 dB -17.85 dB 2:49 09-It's Alright Ma (I'm Only Bleeding) {live}
DR10 -2.91 dB -16.40 dB 2:22 10-Ballad Of Easy Rider {live}
DR11 -0.80 dB -13.48 dB 2:41 11-My Back Pages {live}
DR9 -0.99 dB -13.34 dB 2:46 12-Take A Whiff On Me {live}
DR10 -1.50 dB -12.99 dB 3:09 13-Jesus Is Just Alright {live}
DR10 -0.25 dB -12.93 dB 6:16 14-This Wheel's On Fire
––––––––––––––––––––––––––––––––––––––––

Number of tracks: 14
Official DR value: DR11

Samplerate: 44100 Hz
Channels: 2
Bits per sample: 16
Bitrate: 835 kbps
Codec: FLAC
================================================================================



CD Info:

The Byrds - (Untitled) / (Unissued)

Label: Columbia, Legacy
Catalog#: 495077 2
Format: 2xCD, Album
Country: Europe
Released: 2000, 1970
Genre: Rock
Style: Classic Rock, Country Rock

Tracklist:

CD 1:

1 - Lover Of The Bayou 3:39
2 - Positively 4th Street 3:03
3 - Nashville West 2:07
4 - So You Want To Be A Rock 'N Roll Star 2:38
5 - Mr. Tambourine Man 2:14
6 - Mr. Spaceman 3:08
7 - Eight Miles High 16:07
8 - Chestnut Mare 5:11
9 - Truck Stop Girl 3:24
10 - All The Things 3:08
11 - Yesterday's Train 3:36
12 - Hungry Planet 4:56
13 - Just A Season 3:57
14 - Take A Whiff On Me 3:29
15 - You All Look Alike 3:07
16 - Well Come Back Home 7:40

Tracks 1-7 - Live Recordings
Tracks 8-16 - Studio Recordings

CD 2:

1 - All The Things 4:58
2 - Yesterday's Train 4:11
3 - Lover Of The Bayou 5:15
4 - Kathleen's Song 2:37
5 - White's Lightning Pt. 2 2:22
6 - Willin' 3:33
7 - You Ain't Goin' Nowhere 2:56
8 - Old Blue 3:30
9 - It's Alright Ma (I'm Only Bleeding) 2:49
10 - Ballad Of Easy Rider 2:22
11 - My Back Pages 2:41
12 - Take A Whiff On Me 2:46
13 - Jesus Is Just Alright 3:09
14 - This Wheel's On Fire 6:16

Tracks 1,2 & 4 - Alternate Versions
Tracks 3,5 & 6 - Studio Recordings
Tracks 7-14 - Live Recordings
All Tracks Previously Unissued

Released September 16, 1970
Recorded Live disc: February–March 1970
Studio disc: May 26–June 11, 1970

The Byrds - Untitled & Unissued [Columbia 495077 2] {1970, 2 CD Legacy Edition 2000} (Reuploaded)


review by Bruce Eder

No album by the Byrds – at least, among those that weren't originally regarded as well-nigh perfect – has risen more in some reviewers' estimation in the time since its release than Untitled. True, it always had a following – and among the later (i.e., post-1968) Byrds albums, it was always the one to own, even if you weren't a huge fan. A double LP issued with two discs for the price of one, Untitled was one of the rare modest commercial successes for the latter-day group, which was understandable, as its 69 minutes of music held a great deal of allure, but the album's sales success was also a result of all of the talent there was in the latter-day group, as well as most of the circumstances surrounding its creation all lining up, for once, in the same direction. The first of the two LPs was a live recording from Queens College's Colden Center, from a February 1970 concert, and it was also somewhat contentious at the time. Some longtime fans – remembering the fine harmony singing and the carefully articulated playing of the original five-man lineup from the mid-'60s – didn't care for the approach taken by the 1970-vintage version of the band. It was only in the last decade of the 20th century, many years distant from any version of the band, that some came to accept this recording on its own terms. But then the whole album came into proper focus – the live rendition of "Eight Miles High," which takes up a full side by itself, is the high point of the whole release, a 15-minute jam that showcases this band's prowess, which extended far beyond Roger McGuinn and Clarence White's playing; the original quintet may have sung better, but could never have done with any part of its repertory what this lineup (McGuinn, White, Gene Parsons, Skip Battin) did on-stage, as captured here. What's more, the rest of that live set isn't to be slighted – just when it seemed like one couldn't breathe life into "Mr. Spaceman," "Mr. Tambourine Man," or "So You Want to Be a Rock 'n' Roll Star," Clarence White and company do just that, with the added attraction of a first-rate Dylan cover ("Positively 4th Street") plus a new, better than first-rate Roger McGuinn song, "Lover of the Bayou." The latter was a remnant of the musical that McGuinn had been working on with Jacques Levy, a rock adaptation of Peer Gynt to have been entitled Gene Tryp.

Other parts of that busted musical highlight the studio platter on Untitled: "Chestnut Mare," "All the Things," and "Just a Season," all of which were among the finest songs the Byrds ever recorded, and some of their best recordings ever. After a couple of false starts on the two prior albums, this lineup solidified to the point where the influence of new members Gene Parsons and Skip Battin was manifest, along with Clarence White's distinctive guitar playing, and the result was that the familiar timbre of Roger McGuinn's 12-string Rickenbacker is pushed somewhat aside, in favor of a leaner country-rock orientation; this includes a lot more acoustic guitar on the studio sides, as well as mandolin in at least one place. On some of this material (especially the Parsons-Battin "Yesterday's Train" and Battin's "Well Come Back Home"), they sound more like Crosby, Stills, Nash & Young, and on Leadbelly's "Take a Whiff," the mandolin is the lead instrument. Sad to say, amid all of this diversity of sounds – and lovers of stringed instruments should adore this album – the only song on the album to get heard was McGuinn's "Chestnut Mare" (which was a Top 20 single), but "Truck Stop Girl," "All the Things," "Take a Whiff," and, especially, "Just a Season" (maybe the prettiest song McGuinn has ever written) also hold up very well. Indeed, listening to this album nearly 40 years later, it now seems as though this is the place where the latter-day version of the group finally justified itself as something more important than just a continuation of the mid-'60s band. There are still some spots that are weaker than others – Skip Battin's "Hungry Planet," very much an acquired taste, being a case in point – but between the musicianship and the vast number of peaks achieved among the individual songs, Untitled now seems much more like a pinnacle for the Byrds, and also for the brand of folk-rock and country-rock that they spearheaded.
The Byrds - Untitled & Unissued [Columbia 495077 2] {1970, 2 CD Legacy Edition 2000} (Reuploaded)
allmusicguide
The Byrds - Untitled & Unissued [Columbia 495077 2] {1970, 2 CD Legacy Edition 2000} (Reuploaded)

// classical music \\
// all of my uploads \\
________________

Download:

Filepost FLAC

Filepost Artwork
________________