Subcategories

David Byrne & St. Vincent - Love This Giant (2012) {4AD}

Posted By: ruskaval
David Byrne & St. Vincent - Love This Giant (2012) {4AD}

David Byrne & St. Vincent - Love This Giant (2012) {4AD}
XLD rip | FLAC (tracks)+CUE+LOG -> 285 Mb | Artwork | 5% repair rar
© 2012 4AD | CAD 3231CD
Rock / Alternative / Indie Rock

It's not surprising that David Byrne and St. Vincent's Annie Clark were drawn to work together. While they're hardly sound-alikes, they are both keen but somewhat detached observers of the human condition who make music that's equally cerebral and passionate. However, it is somewhat surprising to learn that they created their collaboration Love This Giant largely online, meeting in the studio together with their team of musicians and producers a handful of times during the album's three-year gestation period, because they're on such a harmonious wavelength throughout it. Though the album's brass-driven sound suggests Byrne's post-Talking Heads work more than St. Vincent's guitar acrobatics (Clark fans may be disappointed that her playing is relegated to the sidelines here, albeit artfully so), it was actually Clark's idea to write these songs for a brass band when the project began as a handful of songs the duo was going to perform in a bookstore. At any rate, trying to dissect the collaboration's inner workings is beside the point when the whole is this dazzlingly creative. While Love This Giant might not be a true concept album, Byrne and Clark explore the themes of individuality, community, love, and death with a thoroughness and cohesiveness that suggests otherwise, and together they push each other into creative spaces they might not have explored on their own.

David Byrne & St. Vincent - Love This Giant (2012) {4AD}


Clark takes a funky turn on "Weekend in the Dust," where her singing mirrors the angular brass stabs behind her as beats whirr and tick like wind-up toys, and delivers some of her most vulnerable vocals on the expansive "Optimist," one of the most unabashed love songs to New York's potential since "Empire State of Mind." However, it's Byrne who sounds most revitalized by all the creativity flowing through Love This Giant, whether on the jaunty album opener "Who," the whimsical character study "I Am an Ape," or the celebratory "The One Who Broke Your Heart," which drafts the Dap-Kings and Antibalas to help him and Clark dance on their troubles. The album peaks with back-to-back highlights from the duo: "The Forest Awakes" lets Clark unleash her formidable fretwork over a relentlessly marching beat and strings and woodwinds, suggesting a particularly audacious St. Vincent track, while "I Should Watch TV" sets classic Byrne observations ("How are you?"/"Not like me") to alternately jarring and jubilant brass. For all the braininess and wildness on display, there's also a sweetness to the album, particularly on "Outside of Space and Time," which sings the praises of physics-defying devotion. Given all the things Byrne and Clark pack into Love This Giant, it's a remarkably catchy and concise set of songs featuring some of the most vibrant work that either one of them has produced.

INFO
More INFO


tracklist:
01. Who
02. Weekend In The Dust
03. Dinner For Two
04. Ice Age
05. I Am An Ape
06. The Forest Awakes
07. I Should Watch TV
08. Lazarus
09. Optimist
10. Lightning
11. The One Who Broke Your Heart (ft. the Dap-Kings & Antibalas)
12. Outside Of Space And Time

David Byrne & St. Vincent - Love This Giant (2012) {4AD}

David Byrne & St. Vincent - Love This Giant (2012) {4AD}

X Lossless Decoder version 20120609 (141.0)

XLD extraction logfile from 2012-09-06 00:10:32 +0200

David Byrne & St. Vincent / Love This Giant

Used drive : HL-DT-ST DVDRW GSA-S10N (revision AP12)

Ripper mode : XLD Secure Ripper
Disable audio cache : OK for the drive with a cache less than 1375KiB
Make use of C2 pointers : NO
Read offset correction : 667
Max retry count : 20
Gap status : Analyzed, Appended (except HTOA)

TOC of the extracted CD
Track | Start | Length | Start sector | End sector
––––––––––––––––––––––––––––-
1 | 00:00:00 | 03:49:72 | 0 | 17246
2 | 03:49:72 | 03:07:07 | 17247 | 31278
3 | 06:57:04 | 03:42:74 | 31279 | 48002
4 | 10:40:03 | 03:13:42 | 48003 | 62519
5 | 13:53:45 | 03:05:24 | 62520 | 76418
6 | 16:58:69 | 04:52:59 | 76419 | 98377
7 | 21:51:53 | 03:08:49 | 98378 | 112526
8 | 25:00:27 | 03:13:31 | 112527 | 127032
9 | 28:13:58 | 03:49:05 | 127033 | 144212
10 | 32:02:63 | 04:15:33 | 144213 | 163370
11 | 36:18:21 | 03:46:51 | 163371 | 180371
12 | 40:04:72 | 04:18:16 | 180372 | 199737

AccurateRip Summary
Disc not found in AccurateRip DB.

All Tracks
Album gain : -8.07 dB
Peak : 1.000000
Statistics
Read error : 0
Jitter error (maybe fixed) : 0
Retry sector count : 0
Damaged sector count : 0

Track 01
Filename : /rip/David Byrne & St. Vincent - Love This Giant (2012) [FLAC]/01 Who.flac
Pre-gap length : 00:02:00

Track gain : -8.02 dB
Peak : 0.954712
CRC32 hash (test run) : 5F531F84
CRC32 hash : 5F531F84
CRC32 hash (skip zero) : 5A47AE1C
AccurateRip v1 signature : F12D892A
AccurateRip v2 signature : 4C54ACC0
->Track not present in AccurateRip database.
Statistics
Read error : 0
Jitter error (maybe fixed) : 0
Retry sector count : 0
Damaged sector count : 0

Track 02
Filename : /rip/David Byrne & St. Vincent - Love This Giant (2012) [FLAC]/02 Weekend In The Dust.flac

Track gain : -8.51 dB
Peak : 0.946045
CRC32 hash (test run) : 70C7D520
CRC32 hash : 70C7D520
CRC32 hash (skip zero) : BF057733
AccurateRip v1 signature : 83988BE6
AccurateRip v2 signature : B30348DA
->Track not present in AccurateRip database.
Statistics
Read error : 0
Jitter error (maybe fixed) : 0
Retry sector count : 0
Damaged sector count : 0

Track 03
Filename : /rip/David Byrne & St. Vincent - Love This Giant (2012) [FLAC]/03 Dinner For Two.flac

Track gain : -9.21 dB
Peak : 0.944183
CRC32 hash (test run) : A3DDC56C
CRC32 hash : A3DDC56C
CRC32 hash (skip zero) : 4F3296A4
AccurateRip v1 signature : D7A7A100
AccurateRip v2 signature : 1F08ED43
->Track not present in AccurateRip database.
Statistics
Read error : 0
Jitter error (maybe fixed) : 0
Retry sector count : 0
Damaged sector count : 0

Track 04
Filename : /rip/David Byrne & St. Vincent - Love This Giant (2012) [FLAC]/04 Ice Age.flac

Track gain : -9.29 dB
Peak : 0.945435
CRC32 hash (test run) : E9CE5B66
CRC32 hash : E9CE5B66
CRC32 hash (skip zero) : 7266EFDE
AccurateRip v1 signature : 30CAA380
AccurateRip v2 signature : 8A1DEBA4
->Track not present in AccurateRip database.
Statistics
Read error : 0
Jitter error (maybe fixed) : 0
Retry sector count : 0
Damaged sector count : 0

Track 05
Filename : /rip/David Byrne & St. Vincent - Love This Giant (2012) [FLAC]/05 I Am An Ape.flac

Track gain : -6.97 dB
Peak : 1.000000
CRC32 hash (test run) : FDAC8D80
CRC32 hash : FDAC8D80
CRC32 hash (skip zero) : 7BFA3BFB
AccurateRip v1 signature : 74C467A7
AccurateRip v2 signature : C014E941
->Track not present in AccurateRip database.
Statistics
Read error : 0
Jitter error (maybe fixed) : 0
Retry sector count : 0
Damaged sector count : 0

Track 06
Filename : /rip/David Byrne & St. Vincent - Love This Giant (2012) [FLAC]/06 The Forest Awakes.flac

Track gain : -7.39 dB
Peak : 1.000000
CRC32 hash (test run) : 1147ECE8
CRC32 hash : 1147ECE8
CRC32 hash (skip zero) : E3D64584
AccurateRip v1 signature : 66E14E9B
AccurateRip v2 signature : 9FAA067E
->Track not present in AccurateRip database.
Statistics
Read error : 0
Jitter error (maybe fixed) : 0
Retry sector count : 0
Damaged sector count : 0

Track 07
Filename : /rip/David Byrne & St. Vincent - Love This Giant (2012) [FLAC]/07 I Should Watch TV.flac

Track gain : -7.83 dB
Peak : 0.941559
CRC32 hash (test run) : 8DFA8BC4
CRC32 hash : 8DFA8BC4
CRC32 hash (skip zero) : C594FF52
AccurateRip v1 signature : FC4C04EB
AccurateRip v2 signature : B53ABE9A
->Track not present in AccurateRip database.
Statistics
Read error : 0
Jitter error (maybe fixed) : 0
Retry sector count : 0
Damaged sector count : 0

Track 08
Filename : /rip/David Byrne & St. Vincent - Love This Giant (2012) [FLAC]/08 Lazarus.flac

Track gain : -7.72 dB
Peak : 0.946899
CRC32 hash (test run) : FFE78B59
CRC32 hash : FFE78B59
CRC32 hash (skip zero) : FDD6AFA7
AccurateRip v1 signature : 63CAE6AB
AccurateRip v2 signature : 4912623A
->Track not present in AccurateRip database.
Statistics
Read error : 0
Jitter error (maybe fixed) : 0
Retry sector count : 0
Damaged sector count : 0

Track 09
Filename : /rip/David Byrne & St. Vincent - Love This Giant (2012) [FLAC]/09 Optimist.flac

Track gain : -6.90 dB
Peak : 1.000000
CRC32 hash (test run) : D6EA1E21
CRC32 hash : D6EA1E21
CRC32 hash (skip zero) : 6FC2045B
AccurateRip v1 signature : 8E301FBF
AccurateRip v2 signature : 90F87C41
->Track not present in AccurateRip database.
Statistics
Read error : 0
Jitter error (maybe fixed) : 0
Retry sector count : 0
Damaged sector count : 0

Track 10
Filename : /rip/David Byrne & St. Vincent - Love This Giant (2012) [FLAC]/10 Lightning.flac

Track gain : -6.63 dB
Peak : 1.000000
CRC32 hash (test run) : 58A8CDD6
CRC32 hash : 58A8CDD6
CRC32 hash (skip zero) : 5D95E413
AccurateRip v1 signature : 9C86510C
AccurateRip v2 signature : C90827B5
->Track not present in AccurateRip database.
Statistics
Read error : 0
Jitter error (maybe fixed) : 0
Retry sector count : 0
Damaged sector count : 0

Track 11
Filename : /rip/David Byrne & St. Vincent - Love This Giant (2012) [FLAC]/11 The One Who Broke Your Heart (ft. the Dap-Kings & Antibalas).flac

Track gain : -8.56 dB
Peak : 1.000000
CRC32 hash (test run) : 1D5D2A50
CRC32 hash : 1D5D2A50
CRC32 hash (skip zero) : C8189868
AccurateRip v1 signature : 031C9B05
AccurateRip v2 signature : 979EEEBC
->Track not present in AccurateRip database.
Statistics
Read error : 0
Jitter error (maybe fixed) : 0
Retry sector count : 0
Damaged sector count : 0

Track 12
Filename : /rip/David Byrne & St. Vincent - Love This Giant (2012) [FLAC]/12 Outside Of Space And Time.flac

Track gain : -6.42 dB
Peak : 1.000000
CRC32 hash (test run) : 4790094E
CRC32 hash : 4790094E
CRC32 hash (skip zero) : 3AB57B09
AccurateRip v1 signature : A88D7BB3
AccurateRip v2 signature : 05B6A5CA
->Track not present in AccurateRip database.
Statistics
Read error : 0
Jitter error (maybe fixed) : 0
Retry sector count : 0
Damaged sector count : 0

No errors occurred

End of status report


All thanks goes to the original releaser!