Subcategories

Cactus - Cactus (1970) [Japanese Remastered Mini-LP '2006] RE-UP

Posted By: perfecta
Cactus - Cactus (1970) [Japanese Remastered Mini-LP '2006] RE-UP

Cactus - Cactus (1970)
EAC-FLAC Image with CUE & LOG - 282 MB | Scans | MP3 CBR 320 Kbps - 92 MB
Japanese Remastered Mini-LP '2006 | 40:19 min | Label: JVC Victor | Cat. # VICW-60029

Cactus is the first album by the American hard rock supergroup Cactus, originally released in 1970 under the Atco label. It includes original songs as well as cover of Mose Allison's version of a blues standard, "Parchman Farm" and another one, Willie Dixon's "You Can't Judge a Book by the Cover".

allmusic.com says:
Cactus may have never amounted to anything more than a half-hearted, last-minute improvised supergroup, but that don't mean their eponymous 1970 debut didn't rock like a mofo. The already quasi-legendary Vanilla Fudge rhythm section of Bogert and Appice may have provided the backbone of the band's business cards, and soulful, ex-Amboy Duke Rusty Day brought the voice, but it was arguably former Detroit Wheels guitarist Jim McCarty who was the true star in the Cactus galaxy, spraying notes and shredding solos all over album highlights such as "You Can't Judge a Book By the Cover," "Let Me Swim," and, most notably, a manic, turbocharged version of "Parchman Farm." The fact that Cactus chose to tackle this classic blues song just a year after it'd been blasted into the fuzz-distortion stratosphere by Blue Cheer betrays – at best – a healthy competitive spirit within the early-'70s hard rock milieu, and at worst it suggests something of a mercenary nature to Cactus' motives, but that's an issue for the surviving bandmembers to duke it out over in the retirement home. And we digress – for the blistering closing duo of "Oleo" and "Feel So Good" (complete with bass and drum solo slots) easily certifies the Cactus LP as one of the best hard rock albums of the then brand-new decade, bar none. Too bad the illustrious members of Cactus would quickly lose interest in this band project and deliver increasingly mediocre efforts in the years that followed.

Tracks:

01. Parchman Farm
02. My Lady From South Of Detroit
03. Bro. Bill
04. You Can't Judge A Book By The Cover
05. Let Me Swim
06. No Need To Worry
07. Oleo
08. Feel So Good

More information @ Wikipedia

- Rusty Day: vocals, harmonica
- Jim McCarty: guitar
- Tim Bogert: bass, background vocals
- Carmine Appice: drums, percussion, background vocals

Exact Audio Copy V0.99 prebeta 5 from 4. May 2009

Отчёт EAC об извлечении, выполненном 19. апреля 2010, 17:55

Cactus / Cactus

Дисковод: PIONEER DVD-RW DVR-111L Adapter: 0 ID: 0

Режим чтения : Достоверность
Использование точного потока : Да
Отключение кэша аудио : Да
Использование указателей C2 : Нет

Коррекция смещения при чтении : 48
Способность читать области Lead-in и Lead-out : Нет
Заполнение пропущенных сэмплов тишиной : Да
Удаление блоков с тишиной в начале и конце : Нет
При вычислениях CRC использовались нулевые сэмплы : Да
Интерфейс : Встроенный Win32-интерфейс для Win NT/2000

Выходной формат : Пользовательский кодировщик
Выбранный битрейт : 768 kBit/s
Качество : Высокий
Добавление ID3-тэга : Нет
Утилита сжатия : C:\Program Files\Exact Audio Copy\Flac\flac.exe
Дополнительные параметры : -8 -V %s -o %d


TOC извлечённого CD

Трек | Старт | Длительность | Начальный сектор | Конечный сектор
––––––––––––––––––––––––––––––––––-
1 | 0:00.00 | 3:07.05 | 0 | 14029
2 | 3:07.05 | 4:26.30 | 14030 | 34009
3 | 7:33.35 | 5:12.30 | 34010 | 57439
4 | 12:45.65 | 6:31.28 | 57440 | 86792
5 | 19:17.18 | 3:51.07 | 86793 | 104124
6 | 23:08.25 | 6:14.65 | 104125 | 132239
7 | 29:23.15 | 4:51.50 | 132240 | 154114
8 | 34:14.65 | 6:04.38 | 154115 | 181452


Характеристики диапазона извлечения и сообщения об ошибках

Выбранный диапазон

Имя файла D:\Torrent\Music_CD\Cactus\Cactus\Cactus - Cactus.wav

Пиковый уровень 100.0 %
Качество диапазона 100.0 %
CRC копии 3B261DD0
Копирование… OK

Ошибок не произошло


AccurateRip: сводка

Трек 1 точность не определена (достоверность 2) [01F159B2], AccurateRip вернул [2F8A1FD0]
Трек 2 точность не определена (достоверность 2) [0292D70C], AccurateRip вернул [458F5228]
Трек 3 точность не определена (достоверность 2) [348DA802], AccurateRip вернул [3B717B38]
Трек 4 точность не определена (достоверность 2) [3165FF80], AccurateRip вернул [3E604916]
Трек 5 точность не определена (достоверность 2) [2B336363], AccurateRip вернул [1C9914C5]
Трек 6 точность не определена (достоверность 2) [18E0C8D2], AccurateRip вернул [65236D86]
Трек 7 точность не определена (достоверность 2) [8EF8ABA6], AccurateRip вернул [15A93FA4]
Трек 8 точность не определена (достоверность 2) [67170208], AccurateRip вернул [A62A1496]

Ни один трек не прошёл проверки на точность
В вашей базе может быть иной вариант штамповки диска

Конец отчёта

––––––––––––––––––––––––––

Track [ CRC ] Status
01 [01f159b2] (0/2) No match
02 [0292d70c] (0/2) No match
03 [348da802] (0/2) No match
04 [3165ff80] (0/2) No match
05 [2b336363] (0/2) No match
06 [18e0c8d2] (0/2) No match
07 [8ef8aba6] (0/2) No match
08 [67170208] (0/2) No match
Offsetted by 66:
01 [2f8a1fd0] (2/2) Accurately ripped
02 [458f5228] (2/2) Accurately ripped
03 [3b717b38] (2/2) Accurately ripped
04 [3e604916] (2/2) Accurately ripped
05 [1c9914c5] (2/2) Accurately ripped
06 [65236d86] (2/2) Accurately ripped
07 [15a93fa4] (2/2) Accurately ripped
08 [a62a1496] (2/2) Accurately ripped

Track Peak [ CRC32 ] [W/O NULL] [ LOG ]
– 100,0 [3B261DD0] [C5CD14C4] CRC32
01 100,0 [354CD477] [06E230F4]
02 100,0 [3B314175] [4FBBE1C8]
03 100,0 [B9AC7FFC] [841DE91B]
04 100,0 [2B2E28F7] [0359542C]
05 100,0 [17AA6C25] [25298292]
06 100,0 [B4169DF8] [F3FFFFE2]
07 100,0 [F55EF5BB] [92C7A196]
08 100,0 [272798A7] [C87D5730]


Thanks to the original ripper