Subcategories

Cactus - Restrictions (1971) [Japanese Remastered Mini-LP '2006] RE-UP

Posted By: perfecta
Cactus - Restrictions (1971) [Japanese Remastered Mini-LP '2006] RE-UP

Cactus - Restrictions (1971)
EAC-FLAC Image with CUE & LOG - 235 MB | Scans | MP3 CBR 320 Kbps - 82 MB
Japanese Remastered Mini-LP '2006 | 35:51 min | Label: JVC Victor | Cat. # VICW-60031

Restrictions is the third and the last album by the original line-up of the American hard rock supergroup Cactus, originally released in 1971 under the Atco label.
"Token Chokin'" also was issued as a single, as well as "Evil", "Alaska" and "Sweet Sixteen" also were released on A and B sides. The music heard is mostly heavy blues and rock with cover of a blues standard, "Evil" as a hard rocking, very heavy and riffy song. (on the album it was credited as Chester Burnett (Howlin' Wolf's real name) although actually it was written for Howlin' Wolf by his bass player Willie Dixon).

allmusic.com says:
With a mixture of members from Vanilla Fudge, Mitch Ryder and the Detroit Wheels, and the Amboy Dukes, it's hard to believe that Cactus didn't really succeed in their time. Often derided for being second-rate boogie rock, the band simply did what it did, and part of the allure of the style is its sloppy, second-rate nature. This 1971 release may not see the band at their peak, but it surely showcases the occasionally thundering rhythm section of Tim Bogert and Carmine Appice. Why a song like "Token Chokin'" was never a hit and why it has yet to be embraced by the classic rock-loving public is a complete mystery. The song is some of the most heels-up, thundering, so-brainless-it's-genius rock that has ever been to tape. It's complete with big guitars, big sing-alongs, and a bass-and-drum combo that could knock out windows. Somebody needs to revive this track. Songs like "Evil" and "Sweet Little Sixteen" are all scorching guitars and long-haired riffing. It's a testament to the blues-inspired power they could surely muster up onstage. Other tracks seem to fall apart like the opener, "Restrictions," and "Guiltless Glider," which starts off thick and heavy á la Blue Oyster Cult's "Godzilla," but goes on for about six minutes too long. To buffer some of the more blustery elements of the record, there are competent acoustic blues numbers like "Mean Night in Cleveland" and "Alaska," the latter an ode to said state featuring lyrics about penguins, Santa Claus, and the aurora borealis. Nobody has ever said that boogie rock is grad school material, and Cactus are certainly no exception – they did manage to make a big, bearded racket that is both groan-inducing and a lot of fun.

Tracks:

01. Restrictions
02. Token Chokin'
03. Guiltless Glider
04. Evil
05. Alaska
06. Sweet Sixteen
07. Bag Drag
08. Mean Night In Cleveland

More information @ Wikipedia

- Rusty Day: vocals, harmonica, percussion
- Jim McCarty: lead guitar, slide guitar
- Tim Bogert: bass, background vocals
- Carmine Appice - drums, percussion, background vocals

Exact Audio Copy V0.99 prebeta 5 from 4. May 2009

Отчёт EAC об извлечении, выполненном 19. апреля 2010, 23:00

Cactus / Restrictions

Дисковод: PIONEER DVD-RW DVR-111L Adapter: 0 ID: 0

Режим чтения : Достоверность
Использование точного потока : Да
Отключение кэша аудио : Да
Использование указателей C2 : Нет

Коррекция смещения при чтении : 48
Способность читать области Lead-in и Lead-out : Нет
Заполнение пропущенных сэмплов тишиной : Да
Удаление блоков с тишиной в начале и конце : Нет
При вычислениях CRC использовались нулевые сэмплы : Да
Интерфейс : Встроенный Win32-интерфейс для Win NT/2000

Выходной формат : Пользовательский кодировщик
Выбранный битрейт : 768 kBit/s
Качество : Высокий
Добавление ID3-тэга : Нет
Утилита сжатия : C:\Program Files\Exact Audio Copy\Flac\flac.exe
Дополнительные параметры : -8 -V %s -o %d


TOC извлечённого CD

Трек | Старт | Длительность | Начальный сектор | Конечный сектор
––––––––––––––––––––––––––––––––––-
1 | 0:00.00 | 6:17.52 | 0 | 28326
2 | 6:17.52 | 3:10.05 | 28327 | 42581
3 | 9:27.57 | 8:44.15 | 42582 | 81896
4 | 18:11.72 | 3:17.16 | 81897 | 96687
5 | 21:29.13 | 3:40.14 | 96688 | 113201
6 | 25:09.27 | 3:18.48 | 113202 | 128099
7 | 28:28.00 | 5:11.57 | 128100 | 151481
8 | 33:39.57 | 2:11.11 | 151482 | 161317


Характеристики диапазона извлечения и сообщения об ошибках

Выбранный диапазон

Имя файла D:\Torrent\Music_CD\Cactus\Restrictions\Cactus - Restrictions.wav

Пиковый уровень 99.9 %
Качество диапазона 100.0 %
CRC копии 60A151E6
Копирование… OK

Ошибок не произошло


AccurateRip: сводка

Трек 1 нет в базе данных
Трек 2 нет в базе данных
Трек 3 нет в базе данных
Трек 4 нет в базе данных
Трек 5 нет в базе данных
Трек 6 нет в базе данных
Трек 7 нет в базе данных
Трек 8 нет в базе данных

Ни одного трека нет в базе AccurateRip

Конец отчёта

–––––––––––––––––––––-

Track [ CRC ] Status
01 [334f0e2f] (0/2) No match
02 [36a9f1a1] (0/2) No match
03 [9cd82705] (0/2) No match
04 [c20c135b] (0/2) No match
05 [842e95be] (0/2) No match
06 [980e74a3] (0/2) No match
07 [fe34e252] (0/2) No match
08 [7d5a5466] (0/2) No match
Offsetted by 60:
01 [2c637ba7] (2/2) Accurately ripped
02 [f4bd0305] (2/2) Accurately ripped
03 [81acb2f9] (2/2) Accurately ripped
04 [d5ea3353] (2/2) Accurately ripped
05 [34aa1dc6] (2/2) Accurately ripped
06 [33eddd9f] (2/2) Accurately ripped
07 [b023d51d] (2/2) Accurately ripped
08 [eb54d057] (2/2) Accurately ripped

Track Peak [ CRC32 ] [W/O NULL] [ LOG ]
– 99,9 [60A151E6] [B23B7367] CRC32
01 99,9 [5DD5E868] [53FE349E]
02 99,8 [23D73E28] [A958D973]
03 99,9 [7E6972E0] [7AC3E839]
04 99,9 [1458E289] [39DBC3E3]
05 99,7 [EE2F2DA2] [7C787C0A]
06 99,9 [F4A5EE75] [D7934789]
07 99,7 [544092FC] [4E12C673]
08 68,0 [F8D7DD74] [51D63385]


Thanks to the original ripper