Subcategories

Cal Tjader - Monterey Concerts (1959) (1989 Reissue, Remastered)

Posted By: shamanicus
Cal Tjader - Monterey Concerts (1959) (1989 Reissue, Remastered)

Cal Tjader - Monterey Concerts (1959) (1989 Reissue, Remastered)
EAC Rip | FLAC (tracks+.cue, log) | Covers | 442 mb | MP3 CBR 320kbps | RAR | 180 mb
Jazz, Afro-Cuban Jazz, Latin Jazz, Swing, Easy Listening | Label: Prestige / PRCD-24026-2

This two-LP set is the definitive early Cal Tjader album and one of the high points of his career. For a Monterey concert that was considered a preview concert for the 1959 Monterey Jazz Festival, Tjader was teamed up with flutist and altoist Paul Horn, pianist Lonnie Hewitt, bassist Al McKibbon, Willie Bobo (on drums and timbales), and percussionist Mongo Santamaria. Their renditions of Latinized jazz tunes along with a few Latin originals practically define the idiom. Highlights include "Doxy," one of the earliest versions of Santamaria's "Afro Blue" (pre-dating John Coltrane's famous rendition by four years), "Love Me or Leave Me," and "A Night in Tunisia." Essential music for everyone's Latin jazz collection.

Tracklist:

01. Doxy
02. Afro Blue
03. Laura
04. Walkin' With Wally
05. We'll Be Together Again
06. 'Round Midnight
07. Love Me Or Leave Me
08. Tu Crees Que
09. S. S. Groove
10. A Night in Tunisa
11. Bess, You Is My Woman
12. Lover Come Back To Me
13. Tumbao

Cal Tjader - Monterey Concerts (1959) (1989 Reissue, Remastered)


Exact Audio Copy V1.0 beta 3 from 29. August 2011

EAC extraction logfile from 2. July 2014, 1:18

Cal Tjader / Monterey Concerts

Used drive : MATSHITADVD-RAM UJ880ES Adapter: 0 ID: 0

Read mode : Secure
Utilize accurate stream : Yes
Defeat audio cache : Yes
Make use of C2 pointers : No

Read offset correction : 102
Overread into Lead-In and Lead-Out : No
Fill up missing offset samples with silence : Yes
Delete leading and trailing silent blocks : No
Null samples used in CRC calculations : Yes
Used interface : Native Win32 interface for Win NT & 2000
Gap handling : Appended to previous track

Used output format : User Defined Encoder
Selected bitrate : 1024 kBit/s
Quality : High
Add ID3 tag : No
Command line compressor : C:\Program Files (x86)\Exact Audio Copy\Flac\flac.exe
Additional command line options : -8 -V -T "ARTIST=%artist%" -T "TITLE=%title%" -T "ALBUM=%albumtitle%" -T "DATE=%year%" -T "TRACKNUMBER=%tracknr%" -T "GENRE=%genre%" -T "PERFORMER=%albuminterpret%" -T "COMPOSER=%composer%" %haslyrics%–tag-from-file=LYRICS="%lyricsfile%"%haslyrics% -T "ALBUMARTIST=%albumartist%" -T "DISCNUMBER=%cdnumber%" -T "TOTALDISCS=%totalcds%" -T "TOTALTRACKS=%numtracks%" -T "COMMENT=%comment%" %source% -o %dest%


TOC of the extracted CD

Track | Start | Length | Start sector | End sector
––––––––––––––––––––––––––––-
1 | 0:00.00 | 8:48.00 | 0 | 39599
2 | 8:48.00 | 6:32.70 | 39600 | 69069
3 | 15:20.70 | 5:20.00 | 69070 | 93069
4 | 20:40.70 | 10:06.60 | 93070 | 138579
5 | 30:47.55 | 5:13.45 | 138580 | 162099
6 | 36:01.25 | 6:07.62 | 162100 | 189686
7 | 42:09.12 | 5:58.40 | 189687 | 216576
8 | 48:07.52 | 5:30.13 | 216577 | 241339
9 | 53:37.65 | 5:19.45 | 241340 | 265309
10 | 58:57.35 | 6:56.30 | 265310 | 296539
11 | 65:53.65 | 4:13.07 | 296540 | 315521
12 | 70:06.72 | 3:15.15 | 315522 | 330161
13 | 73:22.12 | 4:55.10 | 330162 | 352296


Track 1

Filename D:\What CD\Shirley Horn\Cal Tjader - Monterey Concerts\01 - Doxy.wav

Pre-gap length 0:00:02.00

Peak level 80.6 %
Extraction speed 1.7 X
Track quality 100.0 %
Test CRC 601B629B
Copy CRC 601B629B
Accurately ripped (confidence 2) [735D85A6] (AR v2)
Copy OK

Track 2

Filename D:\What CD\Shirley Horn\Cal Tjader - Monterey Concerts\02 - Afro Blue.wav

Peak level 94.2 %
Extraction speed 2.0 X
Track quality 100.0 %
Test CRC 8AAFDB1D
Copy CRC 8AAFDB1D
Accurately ripped (confidence 2) [C10B072C] (AR v2)
Copy OK

Track 3

Filename D:\What CD\Shirley Horn\Cal Tjader - Monterey Concerts\03 - Laura.wav

Peak level 82.3 %
Extraction speed 1.9 X
Track quality 99.9 %
Test CRC 90C9003C
Copy CRC 90C9003C
Accurately ripped (confidence 2) [69112899] (AR v2)
Copy OK

Track 4

Filename D:\What CD\Shirley Horn\Cal Tjader - Monterey Concerts\04 - Walkin' With Wally.wav

Pre-gap length 0:00:01.24

Peak level 87.3 %
Extraction speed 2.5 X
Track quality 100.0 %
Test CRC 948F4BA9
Copy CRC 948F4BA9
Accurately ripped (confidence 2) [1251DFDC] (AR v2)
Copy OK

Track 5

Filename D:\What CD\Shirley Horn\Cal Tjader - Monterey Concerts\05 - We'll Be Together Again.wav

Pre-gap length 0:00:01.40

Peak level 49.2 %
Extraction speed 2.5 X
Track quality 100.0 %
Test CRC EC7719A5
Copy CRC EC7719A5
Accurately ripped (confidence 2) [34CFBBDC] (AR v2)
Copy OK

Track 6

Filename D:\What CD\Shirley Horn\Cal Tjader - Monterey Concerts\06 - 'Round Midnight.wav

Pre-gap length 0:00:02.44

Peak level 80.2 %
Extraction speed 2.5 X
Track quality 99.9 %
Test CRC D0F9F023
Copy CRC D0F9F023
Accurately ripped (confidence 2) [A31A36AB] (AR v2)
Copy OK

Track 7

Filename D:\What CD\Shirley Horn\Cal Tjader - Monterey Concerts\07 - Love Me Or Leave Me.wav

Pre-gap length 0:00:01.62

Peak level 84.8 %
Extraction speed 2.6 X
Track quality 99.9 %
Test CRC 1C87DE9F
Copy CRC 1C87DE9F
Accurately ripped (confidence 2) [337FC903] (AR v2)
Copy OK

Track 8

Filename D:\What CD\Shirley Horn\Cal Tjader - Monterey Concerts\08 - Tu Crees Que.wav

Pre-gap length 0:00:02.13

Peak level 98.6 %
Extraction speed 2.9 X
Track quality 100.0 %
Test CRC 68AB9731
Copy CRC 68AB9731
Accurately ripped (confidence 2) [DA48014C] (AR v2)
Copy OK

Track 9

Filename D:\What CD\Shirley Horn\Cal Tjader - Monterey Concerts\09 - S. S. Groove.wav

Pre-gap length 0:00:02.80

Peak level 96.5 %
Extraction speed 3.0 X
Track quality 100.0 %
Test CRC 00C34BE1
Copy CRC 00C34BE1
Accurately ripped (confidence 2) [AC00D655] (AR v2)
Copy OK

Track 10

Filename D:\What CD\Shirley Horn\Cal Tjader - Monterey Concerts\10 - A Night in Tunisa.wav

Pre-gap length 0:00:02.00

Peak level 93.3 %
Extraction speed 3.2 X
Track quality 100.0 %
Test CRC FDDA5F54
Copy CRC FDDA5F54
Accurately ripped (confidence 2) [8E27BB7D] (AR v2)
Copy OK

Track 11

Filename D:\What CD\Shirley Horn\Cal Tjader - Monterey Concerts\11 - Bess, You Is My Woman.wav

Pre-gap length 0:00:03.66

Peak level 56.0 %
Extraction speed 3.1 X
Track quality 100.0 %
Test CRC 4BF2324E
Copy CRC 4BF2324E
Accurately ripped (confidence 2) [96732756] (AR v2)
Copy OK

Track 12

Filename D:\What CD\Shirley Horn\Cal Tjader - Monterey Concerts\12 - Lover Come Back To Me.wav

Pre-gap length 0:00:02.93

Peak level 73.1 %
Extraction speed 2.7 X
Track quality 99.9 %
Test CRC 16E30209
Copy CRC 16E30209
Accurately ripped (confidence 2) [53BB4091] (AR v2)
Copy OK

Track 13

Filename D:\What CD\Shirley Horn\Cal Tjader - Monterey Concerts\13 - Tumbao.wav

Pre-gap length 0:00:03.96

Peak level 93.5 %
Extraction speed 3.0 X
Track quality 99.9 %
Test CRC ED9DC80C
Copy CRC ED9DC80C
Accurately ripped (confidence 2) [FED90D1C] (AR v2)
Copy OK


All tracks accurately ripped

No errors occurred

End of status report

==== Log checksum D8F99EE170D6CEFA97DE082866949A732D41818AB914043A9DA1BDDC477ED23F ====


Thanks to the Original customer.