Subcategories

Antonio Calegari - La resurrezione di Lazzaro

Posted By: Kushami
Antonio Calegari - La resurrezione di Lazzaro

Antonio Calegari - La resurrezione di Lazzaro
EAC RIP | FLAC + CUE + LOG | PDF Booklet | INTERACTIVE PRESENTATION DISC (.iso format) INCLUDED!!!
Chandos / Chaconne | Recorded: 2000 | Released: 2001
Academia de li Musici - Filippo Maria Bressan

La resurrezione di Lazzaro (The Raising of Lazarus), written in 1779 to an anonymous libretto, was the first essay in sacred music by the Paduan composer Antonio Calegari. By virtue of its single-part structure, the variety of instruments used and the intimacy of the dialogue, it belongs both to the genre of sacred play as derived from the oratorio, and to that of the cantata.



Antonio Calegari (1757-1828)

premiere recording



La resurrezione di Lazzaro 78:11

The Raising of Lazarus

Sacred drama

First performed in Padua on 26 March 1779

Original score revised by Agostino Bortot



1 Concertone (sinfonia) 7:38

2 Chorus and Duet. Chorus: 'Morte, morte' 5:16

3 Recitative. Christ: 'Miei fidi' 0:49

4 Duet and Chorus. Magdalene, Martha: 'Dolce speme alfin rinasce' 2:18

5 Recitative. Martha: 'Deh, perché mai' 1:09

6 Aria. Martha: 'Dal cener suo risorto' 5:42

7 Recitative. Magdalene: 'A tu che leggi in cor' 0:39

8 Aria. Magdalene: 'Morte ingiusta' 8:22

9 Recitative. Christ: 'Figlia, è giusto il tuo pianto' 0:51

10 Aria. Christ: 'Figli, di voi fu scritta' 6:26

11 Accompanied recitative. Thomas: 'Ah perché non poss'io la fonte amara' 2:56

12 Aria. Thomas: 'Figlio di un Dio, che impera' 6:30

13 Recitative. Magdalene: 'Ah sì, t'arrendi o padre' 2:27

14 Cavatina. Christ: 'Queste, che innondano' 2:45

15 Accompanied recitative. Magdalene: 'A tal vista io non reggo' 3:42

16 Aria. Lazarus: 'Man feconda di prodigi' 6:17

17 Recitative. Christ: 'Vieni amico al mio seno' 1:07

18 Duet and Chorus. Magdalene: 'Piango, e nel pianto innondami' 5:47

19 Recitative. Lazarus: 'Umana cecità' 1:28

20 Chorus and Trio. Chorus: 'Signor, tra i sacri Cantici' 3:27

21 Final Chorus. 'Con Cetre, e Trombe, e Cembali' 2:25



Roberta Giua, soprano - Cristo

Luca Dordolo, tenor - Tommaso

Rosita Frisani, soprano - Maddalene

Manuela Custer, contralto - Marta

Salvo Vitale, bass - Lazzaro



Athestis Chorus

Academia de li Musici

Francesco Moi, organ



Filippo Maria Bressan



Chandos Chaconne CHAN0673


Exact Audio Copy V0.99 prebeta 5 from 4. May 2009

EAC extraction logfile from 26. December 2009, 16:43

Antonio Calegari / La Resurrezione di Lazzaro

Used drive : HL-DT-STDVDRAM GH20NS15 Adapter: 2 ID: 1

Read mode : Secure
Utilize accurate stream : Yes
Defeat audio cache : No
Make use of C2 pointers : No

Read offset correction : 667
Overread into Lead-In and Lead-Out : No
Fill up missing offset samples with silence : Yes
Delete leading and trailing silent blocks : No
Null samples used in CRC calculations : Yes
Used interface : Installed external ASPI interface

Used output format : Internal WAV Routines
Sample format : 44.100 Hz; 16 Bit; Stereo


TOC of the extracted CD

Track | Start | Length | Start sector | End sector
––––––––––––––––––––––––––––-
1 | 0:00.00 | 7:38.45 | 0 | 34394
2 | 7:38.45 | 5:16.30 | 34395 | 58124
3 | 12:55.00 | 0:49.65 | 58125 | 61864
4 | 13:44.65 | 2:18.35 | 61865 | 72249
5 | 16:03.25 | 1:09.35 | 72250 | 77459
6 | 17:12.60 | 5:42.45 | 77460 | 103154
7 | 22:55.30 | 0:39.25 | 103155 | 106104
8 | 23:34.55 | 8:22.05 | 106105 | 143759
9 | 31:56.60 | 0:51.15 | 143760 | 147599
10 | 32:48.00 | 6:26.05 | 147600 | 176554
11 | 39:14.05 | 2:56.65 | 176555 | 189819
12 | 42:10.70 | 6:30.40 | 189820 | 219109
13 | 48:41.35 | 2:27.65 | 219110 | 230199
14 | 51:09.25 | 2:45.15 | 230200 | 242589
15 | 53:54.40 | 3:42.00 | 242590 | 259239
16 | 57:36.40 | 6:17.25 | 259240 | 287539
17 | 63:53.65 | 1:07.10 | 287540 | 292574
18 | 65:01.00 | 5:47.45 | 292575 | 318644
19 | 70:48.45 | 1:28.05 | 318645 | 325249
20 | 72:16.50 | 3:27.30 | 325250 | 340804
21 | 75:44.05 | 2:25.20 | 340805 | 351699


Range status and errors

Selected range

Filename D:\Calegari - La resurrezione di Lazzaro\Antonio Calegari - La Resurrezione di Lazzaro.wav

Peak level 92.3 %
Range quality 100.0 %
Test CRC CB6682F6
Copy CRC CB6682F6
Copy OK

No errors occurred


AccurateRip summary

Track 1 not present in database
Track 2 not present in database
Track 3 not present in database
Track 4 not present in database
Track 5 not present in database
Track 6 not present in database
Track 7 not present in database
Track 8 not present in database
Track 9 not present in database
Track 10 not present in database
Track 11 not present in database
Track 12 not present in database
Track 13 not present in database
Track 14 not present in database
Track 15 not present in database
Track 16 not present in database
Track 17 not present in database
Track 18 not present in database
Track 19 not present in database
Track 20 not present in database
Track 21 not present in database

None of the tracks are present in the AccurateRip database

End of status report


PDF booklet and HQ cover picture taken from Chandos website. The rar included an interactive presentation disc in italian and english language, with an accurate cronology of Calegari's life, interview with Bressan, instruments libretto and score infos, and much more.