Subcategories

Cannonball Adderley - Cannonball Adderley In San Francisco (1959) {2007 Riverside} [Keepnews Collection Complete Series]

Posted By: ruskaval
Cannonball Adderley - Cannonball Adderley In San Francisco (1959) {2007 Riverside} [Keepnews Collection Complete Series]

Cannonball Adderley - The Cannonball Adderley Quintet In San Francisco (1959) {2007 Riverside} [Keepnews Collection Complete Series] (Item #4of27)
EAC rip (secure mode) | FLAC (tracks)+CUE+LOG -> 555 Mb | MP3 @320 -> 188 Mb
Full Artwork @ 600 dpi (jpg) -> 95 Mb | 5% repair rar | 24-bit remastering
© 1959, 2007 Concord / Riverside | 0888072301313
Jazz / Post Bop / Hard Bop / Saxophone

Remastered in 24-bit from the original master tapes. Part of our Keepnews Collection, which spotlights classic albums originally produced by the legendary Orrin Keepnews. Recorded live at the Jazz Workshop in San Francisco, this hit album captures the bluesy alto saxophonist and his band (featuring brother Nat on cornet and Bobby Timmons on piano) during their triumphant four-week run. It not only wowed the city’s jazz aficionados but also introduced Russian classical composer Dmitri Shostakovich to his first dose of live jazz.
Cannonball Adderley - Cannonball Adderley In San Francisco (1959) {2007 Riverside} [Keepnews Collection Complete Series]

These sets arguably gave birth to soul-jazz, as well as put Riverside on the map as a label of renown. The lengthy five tunes of the original release are augmented here by three bonus tracks, including two previously unissued.
Cannonball Adderley - Cannonball Adderley In San Francisco (1959) {2007 Riverside} [Keepnews Collection Complete Series]


Personnel:
Cannonball Adderley (alto saxophone)
Nat Adderley (cornet)
Bobby Timmons (piano)
Sam Jones (bass)
Louis Hayes (drums)

tracklist:
01 - A Few Words by Cannonball… and This Here
02 - Spontaneous Combustion
03 - Hi-Fly
04 - You Got It!
05 - Bohemia After Dark (aka Birdland After Dark)
06 - Straight, No Chaser (bonus track)
07 - This Here (alternate take) (bonus track)
08 - You Got It! (alternate take) (bonus track)

Exact Audio Copy V0.99 prebeta 5 from 4. May 2009

EAC extraction logfile from 7. July 2010, 21:44

The Cannonball Adderley Quintet / The Cannonball Adderley Quintet In San Francisco

Used drive : TSSTcorpCD/DVDW TS-H552L Adapter: 3 ID: 0

Read mode : Secure
Utilize accurate stream : Yes
Defeat audio cache : Yes
Make use of C2 pointers : No

Read offset correction : 6
Overread into Lead-In and Lead-Out : No
Fill up missing offset samples with silence : Yes
Delete leading and trailing silent blocks : No
Null samples used in CRC calculations : Yes
Used interface : Native Win32 interface for Win NT & 2000
Gap handling : Appended to previous track

Used output format : User Defined Encoder
Selected bitrate : 1024 kBit/s
Quality : High
Add ID3 tag : No
Command line compressor : C:\Program Files\FLAC\flac.exe
Additional command line options : -6 -V -T "ARTIST=%a" -T "TITLE=%t" -T "ALBUM=%g" -T "DATE=%y" -T "TRACKNUMBER=%n" -T "GENRE=%m" -T "COMMENT=EAC FLAC -6" %s


TOC of the extracted CD

Track | Start | Length | Start sector | End sector
––––––––––––––––––––––––––––-
1 | 0:00.00 | 12:30.26 | 0 | 56275
2 | 12:30.26 | 11:56.28 | 56276 | 110003
3 | 24:26.54 | 11:11.71 | 110004 | 160399
4 | 35:38.50 | 5:07.28 | 160400 | 183452
5 | 40:46.03 | 8:05.52 | 183453 | 219879
6 | 48:51.55 | 11:51.42 | 219880 | 273246
7 | 60:43.22 | 11:37.02 | 273247 | 325523
8 | 72:20.24 | 6:11.70 | 325524 | 353418


Track 1

Filename C:\The Cannonball Adderley Quintet - The Cannonball Adderley Quintet In San Francisco (1959) {2007 Keepnews Collection}\01 - This Here.wav

Pre-gap length 0:00:02.00

Peak level 100.0 %
Track quality 100.0 %
Test CRC 855BDBA3
Copy CRC 855BDBA3
Accurately ripped (confidence 11) [FF3999E4]
Copy OK

Track 2

Filename C:\The Cannonball Adderley Quintet - The Cannonball Adderley Quintet In San Francisco (1959) {2007 Keepnews Collection}\02 - Spontaneous Combustion.wav

Peak level 99.6 %
Track quality 100.0 %
Test CRC 59B0747B
Copy CRC 59B0747B
Accurately ripped (confidence 11) [5D5C78B5]
Copy OK

Track 3

Filename C:\The Cannonball Adderley Quintet - The Cannonball Adderley Quintet In San Francisco (1959) {2007 Keepnews Collection}\03 - Hi-Fly.wav

Peak level 100.0 %
Track quality 100.0 %
Test CRC 901B591A
Copy CRC 901B591A
Accurately ripped (confidence 11) [C2F411B7]
Copy OK

Track 4

Filename C:\The Cannonball Adderley Quintet - The Cannonball Adderley Quintet In San Francisco (1959) {2007 Keepnews Collection}\04 - You Got It!.wav

Peak level 100.0 %
Track quality 100.0 %
Test CRC 74B745A6
Copy CRC 74B745A6
Accurately ripped (confidence 11) [FE6DB3C0]
Copy OK

Track 5

Filename C:\The Cannonball Adderley Quintet - The Cannonball Adderley Quintet In San Francisco (1959) {2007 Keepnews Collection}\05 - Bohemia After Dark (aka Birdland After Dark).wav

Peak level 100.0 %
Track quality 100.0 %
Test CRC 04D96350
Copy CRC 04D96350
Accurately ripped (confidence 11) [040C3613]
Copy OK

Track 6

Filename C:\The Cannonball Adderley Quintet - The Cannonball Adderley Quintet In San Francisco (1959) {2007 Keepnews Collection}\06 - Straight, No Chaser.wav

Peak level 99.8 %
Track quality 100.0 %
Test CRC 9234E7E9
Copy CRC 9234E7E9
Accurately ripped (confidence 11) [FBE6AB65]
Copy OK

Track 7

Filename C:\The Cannonball Adderley Quintet - The Cannonball Adderley Quintet In San Francisco (1959) {2007 Keepnews Collection}\07 - This Here (alternate take).wav

Peak level 100.0 %
Track quality 99.9 %
Test CRC BCC5EEE1
Copy CRC BCC5EEE1
Accurately ripped (confidence 10) [4E2C7F94]
Copy OK

Track 8

Filename C:\The Cannonball Adderley Quintet - The Cannonball Adderley Quintet In San Francisco (1959) {2007 Keepnews Collection}\08 - You Got It! (alternate take).wav

Peak level 100.0 %
Track quality 99.9 %
Test CRC 9F68F99D
Copy CRC 9F68F99D
Accurately ripped (confidence 10) [0A815017]
Copy OK


All tracks accurately ripped

No errors occurred

End of status report


Cannonball Adderley - Cannonball Adderley In San Francisco (1959) {2007 Riverside} [Keepnews Collection Complete Series]

Cannonball Adderley - Cannonball Adderley In San Francisco (1959) {2007 Riverside} [Keepnews Collection Complete Series]


see more Keepnews Collection Complete Series…


===