Subcategories

Ensemble Caprice - Gloria! Vivaldi's Angels (2008)

Posted By: pgf000
Ensemble Caprice - Gloria! Vivaldi's Angels (2008)

Ensemble Caprice - Gloria! Vivaldi's Angels (2008)
EAC Rip | FLAC+CUE+LOG | 308 MB | PDF Booklet
Baroque/Sacred/Vocal | 66:15

One of Antonio Vivaldi's most well-known pieces, the Gloria (RV 589) for choir and orchestra reveals an unexpected sound concept when performed by a woman's choir. At first, the idea appears bizarre because the notation of the choir's parts purports to indicate a conventional choir of mixed gender with a bass line (with bass-clef) and a tenor line being included….

Gloria ! Vivaldi et ses anges / Vivaldi’s Angels
Musique sacrée pour choeur de femmes et orchestre
Sacred Music for Women’s Choir and Orchestra
Ensemble Caprice
Matthias Maute, chef d'orchestre et de choeur / conductor, choir director
Antonio Vivaldi (1678-1741)
Gloria
en ré majeur / in D major, RV 589
pour solistes, choeur et orchestre / for soloists, choir and orchestra
1. Allegro: Gloria in excelsis Deo 2:17
2. Andante: Et in terra pax hominibus 3:32
3. Allegro: Laudamus te, Monika Mauch - Shannon Mercer (sopranos) 2:09
4. Adagio: Gratias agimus tibi 0:26
5. Allegro: Propter magnam gloriam tuam 0:47
6. Largo: Domine Deus, rex coelestis - Shannon Mercer (soprano) 3:01
7. Allegro: Domine fili unigenite 2:17
8. Adagio: Domine Deus, Agnus Dei - Josée Lalonde (alto) 4:10
9. Adagio: Qui tollis peccata mundi0 0:55
10. Allegro: Qui sedes ad dexteram patris - Josée Lalonde (alto) 2:05
11. Allegro: Quoniam tu solus sanctus 0:48
12. Allegro: Cum sancto spiritu 2:44
In furore iustissimae irae
Motet en do mineur / Motet in C minor, RV 626
pour soprano, cordes et basse continue / for soprano, strings and continuo
Monika Mauch (soprano)
13. Aria: In furore iustissimae irae (Allegro) 4:10
14. Recitativo: Miserationum Pater piissime 0:30
15. Aria: Tunc meus fletus evadet laetus (Largo) 6:46
16. Alleluia (Allegro) 1:31
Concerto en ré mineur / Concerto in D minor, RV 535
pour 2 flûtes à bec, cordes et basse continue / for 2 recorders, strings and continuo
Matthias Maute, Sophie Larivière (flûtes à bec / recorders)
17. Largo 1:23
18. Allegro 2:04
19. Largo 2:09
20. Allegro molto 2:29
Ostro picta
Motet en ré majeur / Motet in D major, RV 642
pour soprano, cordes et basse continue / for soprano, strings and continuo
Shannon Mercer (soprano)
21. Aria: Ostro picta (Allegro) 2:46
22. Recitativo: Sic transit vana 1:10
23. Aria: Linguis favete (Allegro) 3:12
Magnificat
en sol mineur / in G minor, RV 610
pour solistes, chorale et orchestre / for soloists, choir and orchestra
24. Adagio: Magnificat anima mea 0:54
25. Allegro: Et exultavit - Shannon Mercer (soprano), Josée Lalonde (alto),
Marie Magistry (tenore) 1:59
26. Andante molto: Et misericordia 3:04
27. Presto: Fecit potentiam 0:27
28. Presto: Deposuit potentes 0:49
29. Allegro: Esurientes implevit - Monika Mauch, Shannon Mercer (sopranos) 1:15
30. Largo: Suscepit - Allegro: Recordatus 0:39
31. Allegro ma poco: Sicut locutus - Shannon Mercer (soprano), Josée Lalonde (alto),
Charlotte Cumberbirch (basso) 1:31
32. Largo: Gloria Patri 1:34
Total : 66:17
Exact Audio Copy V0.99 prebeta 5 from 4. May 2009

EAC extraction logfile from 8. March 2011, 20:11

Ensemble Caprice / Gloria! Vivaldi Et Ses Anges

Used drive : SlimtypeDVD A DS8A4S Adapter: 1 ID: 0

Read mode : Secure
Utilize accurate stream : Yes
Defeat audio cache : Yes
Make use of C2 pointers : No

Read offset correction : 6
Overread into Lead-In and Lead-Out : No
Fill up missing offset samples with silence : Yes
Delete leading and trailing silent blocks : No
Null samples used in CRC calculations : Yes
Used interface : Native Win32 interface for Win NT & 2000

Used output format : User Defined Encoder
Selected bitrate : 768 kBit/s
Quality : High
Add ID3 tag : Yes
Command line compressor : C:\Program Files (x86)\Exact Audio Copy\FLAC\FLAC.EXE
Additional command line options : -6 -V -T "ARTIST=%a" -T "TITLE=%t" -T "ALBUM=%g" -T "DATE=%y" -T "TRACKNUMBER=%n" -T "GENRE=%m" -T "COMMENT=%e" %s -o %d


TOC of the extracted CD

Track | Start | Length | Start sector | End sector
––––––––––––––––––––––––––––-
1 | 0:00.00 | 2:17.20 | 0 | 10294
2 | 2:17.20 | 3:32.46 | 10295 | 26240
3 | 5:49.66 | 2:09.53 | 26241 | 35968
4 | 7:59.44 | 0:26.32 | 35969 | 37950
5 | 8:26.01 | 0:47.63 | 37951 | 41538
6 | 9:13.64 | 3:01.58 | 41539 | 55171
7 | 12:15.47 | 2:16.54 | 55172 | 65425
8 | 14:32.26 | 4:10.56 | 65426 | 84231
9 | 18:43.07 | 0:55.65 | 84232 | 88421
10 | 19:38.72 | 2:04.68 | 88422 | 97789
11 | 21:43.65 | 0:46.46 | 97790 | 101285
12 | 22:30.36 | 2:52.20 | 101286 | 114205
13 | 25:22.56 | 4:10.41 | 114206 | 132996
14 | 29:33.22 | 0:29.28 | 132997 | 135199
15 | 30:02.50 | 6:46.63 | 135200 | 165712
16 | 36:49.38 | 1:40.24 | 165713 | 173236
17 | 38:29.62 | 1:23.14 | 173237 | 179475
18 | 39:53.01 | 2:04.01 | 179476 | 188776
19 | 41:57.02 | 2:10.20 | 188777 | 198546
20 | 44:07.22 | 2:35.60 | 198547 | 210231
21 | 46:43.07 | 2:46.23 | 210232 | 222704
22 | 49:29.30 | 1:10.32 | 222705 | 227986
23 | 50:39.62 | 3:19.37 | 227987 | 242948
24 | 53:59.24 | 0:54.63 | 242949 | 247061
25 | 54:54.12 | 1:59.44 | 247062 | 256030
26 | 56:53.56 | 3:04.10 | 256031 | 269840
27 | 59:57.66 | 0:27.36 | 269841 | 271901
28 | 60:25.27 | 0:49.22 | 271902 | 275598
29 | 61:14.49 | 1:14.59 | 275599 | 281207
30 | 62:29.33 | 0:38.31 | 281208 | 284088
31 | 63:07.64 | 1:31.53 | 284089 | 290966
32 | 64:39.42 | 1:36.25 | 290967 | 298191


Range status and errors

Selected range

Filename C:\Ensemble Caprice - Gloria! Vivaldi Et Ses Anges.wav

Peak level 97.9 %
Range quality 100.0 %
Copy CRC 47D6F3CE
Copy OK

No errors occurred


AccurateRip summary

Track 1 accurately ripped (confidence 2) [ACA932E0]
Track 2 accurately ripped (confidence 3) [EE2255E5]
Track 3 accurately ripped (confidence 3) [2553F62A]
Track 4 accurately ripped (confidence 3) [E00DB68B]
Track 5 accurately ripped (confidence 3) [F9FB35F0]
Track 6 accurately ripped (confidence 3) [1008D559]
Track 7 accurately ripped (confidence 3) [AFF64EDC]
Track 8 accurately ripped (confidence 3) [5A3DFCE1]
Track 9 accurately ripped (confidence 2) [1B67ED6B]
Track 10 accurately ripped (confidence 3) [FC852A79]
Track 11 accurately ripped (confidence 3) [52EB5E7C]
Track 12 accurately ripped (confidence 3) [00484696]
Track 13 accurately ripped (confidence 3) [7E9BA7B7]
Track 14 accurately ripped (confidence 3) [98CB81DF]
Track 15 accurately ripped (confidence 2) [E6B33ABA]
Track 16 accurately ripped (confidence 3) [31660676]
Track 17 accurately ripped (confidence 3) [3A277641]
Track 18 accurately ripped (confidence 3) [68E80B2E]
Track 19 accurately ripped (confidence 3) [13036683]
Track 20 accurately ripped (confidence 3) [BBE99CBB]
Track 21 accurately ripped (confidence 3) [47A39E8A]
Track 22 accurately ripped (confidence 3) [413E305D]
Track 23 accurately ripped (confidence 3) [6334417A]
Track 24 accurately ripped (confidence 3) [C4410E9B]
Track 25 accurately ripped (confidence 2) [BED4C7BF]
Track 26 accurately ripped (confidence 3) [766BEF45]
Track 27 accurately ripped (confidence 3) [4CC0FD89]
Track 28 accurately ripped (confidence 3) [30AD87BC]
Track 29 accurately ripped (confidence 3) [B1B6E312]
Track 30 accurately ripped (confidence 3) [357FAFB9]
Track 31 accurately ripped (confidence 3) [33B2D3F1]
Track 32 accurately ripped (confidence 3) [E92557FC]

All tracks accurately ripped

End of status report


No more mirrors!