Subcategories

Caravan - 8 Albums (1968-1980) [Japanese Mini LP Collection 2009 - w. Bonus Tracks] RE-UP

Posted By: perfecta
Caravan - 8 Albums (1968-1980) [Japanese Mini LP Collection 2009 - w. Bonus Tracks] RE-UP

Caravan - 8 Albums (1968-1980) [Japanese Mini LP Collection 2009]
EAC | 8x FLAC Images with CUEs and LOGs - 3,35 GB | Full PNG Scans | MP3 CBR 320 Kbps - 1,27 GB
Progressive Rock / Psychedelic Jazz-Rock | TT - 572:31 mins | Japanese SHM-CD, based on 2002 Remastering

Caravan are an English band from the Canterbury area, founded by former Wilde Flowers members David Sinclair, Richard Sinclair, Pye Hastings and Richard Coughlan. Caravan rose to success over a period of several years from 1968 onwards into the 1970s as part of the Canterbury scene, blending psychedelic rock and jazz to create a distinctive sound like their contemporaries Soft Machine. Caravan still remains active as a live band in the 21st century. This Japanese cardboard sleeve (mini LP) reissue series featuring the albums "Caravan", "If I Could It All Over Again I'd Do It All Over You", "In The Land Of Grey And Pink", "Waterloo Lily", "For Girls Who Grow Plump In The Night", "Caravan And The New Symphonia", "Cunning Stunts", and "Live At The Fairfield Halls".

Caravan at Wikipedia
Caravan was one of the more formidable progressive rock acts to come out of England in the 1960s, though they were never much more than a very successful cult band at home, and, apart from a brief moment in 1975, barely a cult band anywhere else in the world. They only ever charted one album in their first six years of activity, but they made a lot of noise in the English rock press, and their following has been sufficiently loyal and wide to keep their work in print for extended periods during the 1970s, the 1990s, and in the new century.

_________ Caravan - Japanese Mini LP SHM-CD Collection contains: _________


Caravan - 8 Albums (1968-1980) [Japanese Mini LP Collection 2009 - w. Bonus Tracks] RE-UP

Caravan - Caravan (1968) [SHM-CD 2009]
EAC-FLAC with CUE & LOG - 324 MB | Full Scans - 548 MB | MP3 CBR 320 Kbps - 163 MB
Progressive Rock / Symphonic Rock | TT - 74:03 mins | Japanese SHM-CD, based on 2002 Remastering

Tracks:

01. Place Of My Own (Mono)
02. Ride (Mono)
03. Policeman (Mono)
04. Love Song With Flute (Mono)
05. Cecil Rons (Mono)
06. Magic Man (Mono)
07. Grandma's Lawn (Mono)
08. Where But For Caravan Would I (Mono)
09. Place Of My Own (Stereo)
10. Ride (Stereo)
11. Policeman (Stereo)
12. Love Song With Flute (Stereo)
13. Cecil Rons (Stereo)
14. Magic Man (Stereo)
15. Grandma's Lawn (Stereo)
16. Where But For Caravan Would I (Stereo)
17. Hello Hello (Stereo) [Bonus Track]

allmusic.com says: For their first album, Caravan was surprisingly strong. While steeped in the same British psychedelia that informed bands such as Love Children, Pink Floyd, and Tomorrow, Caravan relates a freedom of spirit and mischief along the lines of Giles, Giles & Fripp or Gong. The band's roots can be traced to a British blue-eyed soul combo called the Wilde Flowers. Among the luminaries to have passed through this Caravan precursor were Robert Wyatt, Kevin Ayers, and Hugh Hopper and Brian Hopper (pre-Soft Machine, naturally). By the spring of 1968, Caravan had settled nicely into a quartet consisting of Pye Hastings (guitar/bass/vocals), Richard Coughlan (drums), David Sinclair (organ/vocals), and Richard Sinclair (bass/guitar/vocals). Inspired by the notoriety and acclaim that Soft Machine encountered during the burgeoning days of London's underground scene, Caravan began a residency at the Middle Earth club. Additionally, the band was shopping a homemade demo tape around to local record companies. Before long, entrepreneur Tony Cox worked out a deal for them to record on the newly founded U.K. division of the Verve label. Caravan's self-titled debut is equally as inventive and infinitely more subtle than the Soft Machine's Volume One or Pink Floyd's Piper at the Gates of Dawn. Two of the album's best tunes – the ethereal "Place of My Own" was backed with the dreamlike "Magic Man" – were issued as the band's first single. Those tracks accurately exemplify the subtle complexities that Caravan would hone to great effect on later recordings. The same can also be said for album cuts such as "Love Song With Flute" and the extended nine-minute "Where but for Caravan Would I?" The latter title aptly exemplifies Caravan's decidedly less than turgid attitude toward themselves – a refreshing contrast from the temperamental and serious Art School approach adopted by Pink Floyd and the Moody Blues. The mono and stereo mixes of the long-player are striking in their disparities. The stereo mix is at times opaque and virtually swallows the vocals most specifically on the tracks "Policeman" and "Grandma's Lawn." Otherwise, there are numerous additional nuances that discern the two. The single version of "Hello Hello" is also included as a bonus. This track was the follow-up 45 to "Place of My Own" and would appear in a slightly different form on their next LP, If I Could Do It All Over Again, I'd Do It All Over You. Potential consumers should note that the sound quality on this package is indescribably better than the HTD Records 1996 CD pressing.

Exact Audio Copy V1.0 beta 3 from 29. August 2011

EAC extraction logfile from 19. February 2012, 22:15

Caravan / Caravan

Used drive : HL-DT-STDVDRAM GSA-H60N Adapter: 2 ID: 0

Read mode : Secure
Utilize accurate stream : Yes
Defeat audio cache : Yes
Make use of C2 pointers : No

Read offset correction : 667
Overread into Lead-In and Lead-Out : No
Fill up missing offset samples with silence : Yes
Delete leading and trailing silent blocks : No
Null samples used in CRC calculations : Yes
Used interface : Native Win32 interface for Win NT & 2000

Used output format : Internal WAV Routines
Sample format : 44.100 Hz; 16 Bit; Stereo


TOC of the extracted CD

Track | Start | Length | Start sector | End sector
––––––––––––––––––––––––––––-
1 | 0:00.00 | 4:07.70 | 0 | 18594
2 | 4:07.70 | 3:45.02 | 18595 | 35471
3 | 7:52.72 | 2:46.65 | 35472 | 47986
4 | 10:39.62 | 4:10.73 | 47987 | 66809
5 | 14:50.60 | 4:07.65 | 66810 | 85399
6 | 18:58.50 | 4:02.07 | 85400 | 103556
7 | 23:00.57 | 3:26.00 | 103557 | 119006
8 | 26:26.57 | 9:01.65 | 119007 | 159646
9 | 35:28.47 | 4:03.10 | 159647 | 177881
10 | 39:31.57 | 3:43.70 | 177882 | 194676
11 | 43:15.52 | 2:44.38 | 194677 | 207014
12 | 46:00.15 | 4:11.32 | 207015 | 225871
13 | 50:11.47 | 4:08.03 | 225872 | 244474
14 | 54:19.50 | 4:02.65 | 244475 | 262689
15 | 58:22.40 | 3:25.05 | 262690 | 278069
16 | 61:47.45 | 9:01.27 | 278070 | 318671
17 | 70:48.72 | 3:14.15 | 318672 | 333236


Range status and errors

Selected range

Filename C:\Documents and Settings\Admin\Рабочий стол\Rip by ALLexxess\2011 Caravan 8 Mini LP SHM-CD Universal Music Japan\1968 Caravan\Caravan - Caravan.wav

Peak level 99.2 %
Extraction speed 6.3 X
Range quality 99.9 %
Test CRC 327BE390
Copy CRC 327BE390
Copy OK

No errors occurred


AccurateRip summary

Track 1 cannot be verified as accurate (confidence 31) [83662B4D], AccurateRip returned [AE56F04B] (AR v2)
Track 2 cannot be verified as accurate (confidence 30) [C39BD349], AccurateRip returned [B4DF8E3A] (AR v2)
Track 3 cannot be verified as accurate (confidence 30) [B1AA6A9C], AccurateRip returned [2507EE94] (AR v2)
Track 4 cannot be verified as accurate (confidence 30) [645094A8], AccurateRip returned [810C591D] (AR v2)
Track 5 cannot be verified as accurate (confidence 31) [6FAEAC33], AccurateRip returned [AEFDD0CB] (AR v2)
Track 6 cannot be verified as accurate (confidence 31) [E70C5915], AccurateRip returned [D3A0EF9B] (AR v2)
Track 7 cannot be verified as accurate (confidence 31) [EC0D3F67], AccurateRip returned [807910FB] (AR v2)
Track 8 cannot be verified as accurate (confidence 31) [1ED7E5E0], AccurateRip returned [A420D9A8] (AR v2)
Track 9 cannot be verified as accurate (confidence 33) [A89E0224], AccurateRip returned [22FB03B1] (AR v2)
Track 10 cannot be verified as accurate (confidence 33) [41BC5B50], AccurateRip returned [79C20733] (AR v2)
Track 11 cannot be verified as accurate (confidence 33) [833ABD22], AccurateRip returned [7E74CB65] (AR v2)
Track 12 cannot be verified as accurate (confidence 33) [4EBA8C58], AccurateRip returned [8434DB4E] (AR v2)
Track 13 cannot be verified as accurate (confidence 32) [15FEF470], AccurateRip returned [9C6898BE] (AR v2)
Track 14 cannot be verified as accurate (confidence 33) [A37F2D3E], AccurateRip returned [4C728B77] (AR v2)
Track 15 cannot be verified as accurate (confidence 32) [9E188005], AccurateRip returned [6C681061] (AR v2)
Track 16 cannot be verified as accurate (confidence 32) [81507DDA], AccurateRip returned [D7FA0DE5] (AR v2)
Track 17 cannot be verified as accurate (confidence 30) [5FCDB7E9], AccurateRip returned [49BAACCA] (AR v2)

No tracks could be verified as accurate
You may have a different pressing from the one(s) in the database

End of status report

==== Log checksum 54C9633A10AA87D1F257E05527B971B72FF6957E51B9EE919662F89B9915B508 ====



–––––––––––––––––––––––––––––––––––––––––––––-

Caravan - 8 Albums (1968-1980) [Japanese Mini LP Collection 2009 - w. Bonus Tracks] RE-UP

Caravan - If I Could Do It All Over Again, I'd Do It All Over You (1970) [SHM-CD 2009]
EAC-FLAC with CUE & LOG - 385 MB | Full Scans - 513 MB | MP3 CBR 320 Kbps - 146 MB
Progressive Rock / Symphonic Rock | TT - 64:52 mins | Japanese SHM-CD, based on 2002 Remastering

Tracks:

01. If I Could Do It All Over Again, I'd Do It All Over You
02. And I Wish I Were Stoned / Don't Worry
03. As I Feel I Die
04. With An Ear To The Ground You Can Make It / Martinian / Only Cox / Reprise
05. Hello Hello
06. Asforteri
07. Can't Be Long Now / Francoise / For Richard / Warlock
08. Limits
09. A Day In The Life Of Maurice Haylett [Bonus Track]
10. Why (And I Wish I Were Stoned) (Demo Version) [Bonus Track]
11. Clipping The 8th (Hello Hello) (Demo Version) [Bonus Track]
12. As I Feel I Die (Demo Version) [Bonus Track]

allmusic.com says: Caravan followed up their eponymous debut with the cryptically titled If I Could Do It All Over Again I'd Do It All Over You in the fall of 1970. If I Could Do It All Over Again contains significant progressions over the first album. These include the intricacy with which compositions are sculpted around some of the finest instrumental improvisation in British rock at the time – or arguably since. Caravan's uncanny ability to create a montage that effortlessly maneuvers through acoustic folk and electric progressive rock is best exemplified on the "With an Ear to the Ground" suite. The extended instrumental passages weave in and out of each other, creating a hypnotic and otherwise psychedelic soundscape that would become a trademark of the European progressive rock movement. Another epic, "For Richard" quickly found solid standing as the Caravan live performance closer for decades after first appearing on this album. Juxtaposed against these pieces are several shorter works, which in essence clear the palette for the longer ones. The title track, as well as "Hello, Hello" are perfect examples of how Caravan was able to one-up many of their progressive contemporaries, creating shorter and more accessible songs for radio airplay – resulting in a guest appearance on BBC TV's Top of the Pops program.

Exact Audio Copy V1.0 beta 3 from 29. August 2011

EAC extraction logfile from 22. February 2012, 21:37

Caravan / If I Could Do It All Over Again, I'd Do It All Over You

Used drive : HL-DT-STDVDRAM GSA-H60N Adapter: 2 ID: 0

Read mode : Secure
Utilize accurate stream : Yes
Defeat audio cache : Yes
Make use of C2 pointers : No

Read offset correction : 667
Overread into Lead-In and Lead-Out : No
Fill up missing offset samples with silence : Yes
Delete leading and trailing silent blocks : No
Null samples used in CRC calculations : Yes
Used interface : Native Win32 interface for Win NT & 2000

Used output format : Internal WAV Routines
Sample format : 44.100 Hz; 16 Bit; Stereo


TOC of the extracted CD

Track | Start | Length | Start sector | End sector
––––––––––––––––––––––––––––-
1 | 0:00.00 | 3:07.57 | 0 | 14081
2 | 3:07.57 | 8:20.20 | 14082 | 51601
3 | 11:28.02 | 5:06.55 | 51602 | 74606
4 | 16:34.57 | 9:54.00 | 74607 | 119156
5 | 26:28.57 | 3:45.40 | 119157 | 136071
6 | 30:14.22 | 1:21.55 | 136072 | 142201
7 | 31:36.02 | 14:21.05 | 142202 | 206781
8 | 45:57.07 | 1:35.70 | 206782 | 213976
9 | 47:33.02 | 5:07.00 | 213977 | 237001
10 | 52:40.02 | 4:21.70 | 237002 | 256646
11 | 57:01.72 | 3:12.65 | 256647 | 271111
12 | 60:14.62 | 4:37.38 | 271112 | 291924


Range status and errors

Selected range

Filename C:\Documents and Settings\Admin\Рабочий стол\Rip by ALLexxess\2011 Caravan 8 Mini LP SHM-CD Universal Music Japan\1970 If I Could Do It All Over Again, I'd Do It All Over You\Caravan - If I Could Do It All Over Again.wav

Peak level 97.7 %
Extraction speed 6.1 X
Range quality 100.0 %
Test CRC 022B4DC8
Copy CRC 022B4DC8
Copy OK

No errors occurred


AccurateRip summary

Track 1 accurately ripped (confidence 2) [AA76C106] (AR v1)
Track 2 accurately ripped (confidence 2) [D396E7AD] (AR v1)
Track 3 accurately ripped (confidence 2) [3061E099] (AR v1)
Track 4 accurately ripped (confidence 2) [785D0DDB] (AR v1)
Track 5 accurately ripped (confidence 2) [4D264441] (AR v1)
Track 6 accurately ripped (confidence 2) [DE06A731] (AR v1)
Track 7 accurately ripped (confidence 2) [61D5D420] (AR v1)
Track 8 accurately ripped (confidence 2) [A4173C1B] (AR v1)
Track 9 accurately ripped (confidence 2) [CADA465F] (AR v1)
Track 10 accurately ripped (confidence 2) [E3C7C7A9] (AR v1)
Track 11 accurately ripped (confidence 2) [88D839D7] (AR v1)
Track 12 accurately ripped (confidence 2) [B41FC79B] (AR v1)

All tracks accurately ripped

End of status report

==== Log checksum 0F9E848AC1EE3C40C711B992E7D3AA5E1BCD9B866F2A83B8B518B3A37D41DC28 ====



––––––––––––––––––––––––––––––––––––––––––––-

Caravan - 8 Albums (1968-1980) [Japanese Mini LP Collection 2009 - w. Bonus Tracks] RE-UP

Caravan - In The Land Of Grey And Pink (1971) [SHM-CD 2009]
EAC-FLAC with CUE & LOG - 463 MB | Full Scans - 557 MB | MP3 CBR 320 Kbps - 170 MB
Progressive Rock / Symphonic Rock | TT - 74:43 mins | Japanese SHM-CD, based on 2002 Remastering

Tracks:

01. Golf Girl
02. Winter Wine
03. Love To Love You (And Tonight Pigs Will Fly)
04. In The Land Of Grey And Pink
05. Nine Feet Underground
06. I Don't Know Its Name (Alias The Word) [Bonus Track]
07. Aristocracy [Bonus Track]
08. It's Likely To Have A Name Next Week [Bonus Track]
09. Group Girl [Bonus Track]
10. Dissassociation - 100% Proof [Bonus Track]

allmusic.com says: In the Land of Grey and Pink is considered by many to be a pinnacle release from Caravan. The album contains an undeniable and decidedly European sense of humor and charm. In addition, this would mark the end of the band's premiere lineup. Co-founder David Sinclair would leave Caravan to form Matching Mole with Soft Machine drummer and vocalist Robert Wyatt in August of 1971. As a group effort, In the Land of Grey and Pink displays all the ethereal brilliance Caravan created on their previous pair of 12" outings. Their blending of jazz and folk instrumentation and improvisational styles hints at Traffic and Family, as displayed on "Winter Wine," as well as the organ and sax driven instrumental introduction to "Nine Feet Underground." These contrast the decidedly aggressive sounds concurrent with albums from King Crimson or Soft Machine. In fact, beginning with the album's title, there seems to be pastoral qualities and motifs throughout. Another reason enthusiasts rank this album among their favorites is the group dynamic which has rarely sounded more singular or cohesive. David Sinclair's lyrics are of particular note, especially the middle-earth imagery used on "Winter Wine" or the enduring whimsy of "Golf Girl." The remastered version of this album includes previously unissued demos/alternate versions of both tracks under the titles: "It's Likely to Have a Name Next Week" and "Group Girl," respectively. The remastered disc also includes "I Don't Know Its Name (Alias the Word)" and "Aristocracy," two pieces that were completed, but shelved in deference to the time limitations imposed during the days of wine and vinyl. The latter composition would be reworked and released on Caravan's next album, Waterloo Lily.

Exact Audio Copy V1.0 beta 3 from 29. August 2011

EAC extraction logfile from 19. February 2012, 13:15

Caravan / In The Land Of Grey And Pink

Used drive : HL-DT-STDVDRAM GSA-H60N Adapter: 2 ID: 0

Read mode : Secure
Utilize accurate stream : Yes
Defeat audio cache : Yes
Make use of C2 pointers : No

Read offset correction : 667
Overread into Lead-In and Lead-Out : No
Fill up missing offset samples with silence : Yes
Delete leading and trailing silent blocks : No
Null samples used in CRC calculations : Yes
Used interface : Native Win32 interface for Win NT & 2000

Used output format : Internal WAV Routines
Sample format : 44.100 Hz; 16 Bit; Stereo


TOC of the extracted CD

Track | Start | Length | Start sector | End sector
––––––––––––––––––––––––––––-
1 | 0:00.00 | 5:00.45 | 0 | 22544
2 | 5:00.45 | 7:36.10 | 22545 | 56754
3 | 12:36.55 | 3:04.12 | 56755 | 70566
4 | 15:40.67 | 5:00.18 | 70567 | 93084
5 | 20:41.10 | 22:43.72 | 93085 | 195381
6 | 43:25.07 | 6:10.23 | 195382 | 223154
7 | 49:35.30 | 3:42.60 | 223155 | 239864
8 | 53:18.15 | 7:48.40 | 239865 | 275004
9 | 61:06.55 | 5:03.22 | 275005 | 297751
10 | 66:10.02 | 8:32.50 | 297752 | 336201


Range status and errors

Selected range

Filename C:\Documents and Settings\Admin\Рабочий стол\Rip by ALLexxess\2011 Caravan 8 Mini LP SHM-CD Universal Music Japan\1971 In The Land Of Grey And Pink\Caravan - In The Land Of Grey And Pink.wav

Peak level 97.1 %
Extraction speed 6.3 X
Range quality 99.9 %
Test CRC 3F6AD912
Copy CRC 3F6AD912
Copy OK

No errors occurred


AccurateRip summary

Track 1 accurately ripped (confidence 3) [87DC8426] (AR v1)
Track 2 accurately ripped (confidence 3) [5B0FDE94] (AR v1)
Track 3 accurately ripped (confidence 3) [C01B7B3E] (AR v1)
Track 4 accurately ripped (confidence 3) [327D094B] (AR v1)
Track 5 accurately ripped (confidence 3) [60DCE39E] (AR v1)
Track 6 accurately ripped (confidence 3) [84F97E18] (AR v1)
Track 7 accurately ripped (confidence 3) [0E41292E] (AR v1)
Track 8 accurately ripped (confidence 3) [73EE7E48] (AR v1)
Track 9 accurately ripped (confidence 3) [208C4B77] (AR v1)
Track 10 accurately ripped (confidence 3) [75B3C4E5] (AR v1)

All tracks accurately ripped

End of status report

==== Log checksum DC5E4EB0D6ABF98A118F3B12B4FDA7D7641F9C3470783A7C8523C012DE6F3EF1 ====



–––––––––––––––––––––––––––––––––––––––––––––-

Caravan - 8 Albums (1968-1980) [Japanese Mini LP Collection 2009 - w. Bonus Tracks] RE-UP

Caravan - Waterloo Lily (1972) [SHM-CD 2009]
EAC-FLAC with CUE & LOG - 307 MB | Full Scans - 664 MB | MP3 CBR 320 Kbps - 120 MB
Progressive Rock / Symphonic Rock | TT - 52:59 mins | Japanese SHM-CD, based on 2002 Remastering

Tracks:

01. Waterloo Lily
02. Nothing At All / It's Coming Soon / Nothing At All (Reprise)
03. Songs & Signs
04. Aristocracy
05. The Love In Your Eye / To Catch Me A Brother / Subsultus / Debouchement / Tilbury Kecks
06. The World Is Yours
07. Pye's June Thing [Bonus Track]
08. Ferdinand [Bonus Track]
09. Looking Left, Looking Right / Pye's Loop [Bonus Track]

allmusic.com says: Before the recording of Waterloo Lily, David Sinclair departed Caravan to join forces with Soft Machine skinsman Robert Wyatt and form Matching Mole. With the subsequent arrival of former Delivery member Steve Miller and an overwhelming jazz influence, the edgier progressive rock and folk elements that were so prevalent on their previous albums are somewhat repressed. The band's performance level did not suffer in the transition. In fact, the addition of Miller only punctuates Caravan's previously honed improvisational skills. Beginning with Waterloo Lily's leadoff title track, there is a sound more akin to the jazzier efforts of Traffic. Miller's "Nothing at All" incorporates the jazz fusion even further as the long instrumental introduction more than hints at Steely Dan circa Katy Lied. The up-tempo staccato bop featuring Miller's electric piano accents, when juxtaposed with Pye Hastings' liquid-toned electric guitar could easily be mistaken for that of Walter Becker and Donald Fagan. The remainder of the album centers on a couple of pieces that evoke the sound and spirit of the previous Caravan outings. Most reminiscent of the classic sound is Hastings' epic "The Love in Your Eye" suite. The track recalls the laid-back intensity and phenomenal improvisational synergy of earlier tracks such as "For Richard" and "Where, but for Caravan Would I," while wisely incorporating Miller's formidable jazz chops to give the instrumental sections sustained substance throughout. The remastered CD offers three additional compositions circa the Waterloo Lily sessions. "Pye's June Thing" and "Ferdinand" are two of Hastings' acoustic demos. A considerably more complete "Looking Left, Looking Right" is a treasured recovery from the vaults. Originally vaulted due to the time limitations of vinyl, this track, along with "Pye's Loop" – which acts as a coda to "Looking Left…" – mark their debut release here.

Exact Audio Copy V1.0 beta 3 from 29. August 2011

EAC extraction logfile from 22. February 2012, 19:29

Caravan / Waterloo Lily

Used drive : HL-DT-STDVDRAM GSA-H60N Adapter: 2 ID: 0

Read mode : Secure
Utilize accurate stream : Yes
Defeat audio cache : Yes
Make use of C2 pointers : No

Read offset correction : 667
Overread into Lead-In and Lead-Out : No
Fill up missing offset samples with silence : Yes
Delete leading and trailing silent blocks : No
Null samples used in CRC calculations : Yes
Used interface : Native Win32 interface for Win NT & 2000

Used output format : Internal WAV Routines
Sample format : 44.100 Hz; 16 Bit; Stereo


TOC of the extracted CD

Track | Start | Length | Start sector | End sector
––––––––––––––––––––––––––––-
1 | 0:00.00 | 6:48.00 | 0 | 30599
2 | 6:48.00 | 10:22.65 | 30600 | 77314
3 | 17:10.65 | 3:40.07 | 77315 | 93821
4 | 20:50.72 | 3:03.73 | 93822 | 107619
5 | 23:54.70 | 12:32.12 | 107620 | 164031
6 | 36:27.07 | 3:40.18 | 164032 | 180549
7 | 40:07.25 | 2:58.07 | 180550 | 193906
8 | 43:05.32 | 2:57.13 | 193907 | 207194
9 | 46:02.45 | 6:56.32 | 207195 | 238426


Range status and errors

Selected range

Filename C:\Documents and Settings\Admin\Рабочий стол\Rip by ALLexxess\2011 Caravan 8 Mini LP SHM-CD Universal Music Japan\1972 Waterloo Lily\Caravan - Waterloo Lily.wav

Peak level 98.8 %
Extraction speed 6.0 X
Range quality 100.0 %
Test CRC 5C8DAD5F
Copy CRC 5C8DAD5F
Copy OK

No errors occurred


AccurateRip summary

Track 1 accurately ripped (confidence 2) [163D2189] (AR v1)
Track 2 accurately ripped (confidence 2) [DCB13597] (AR v1)
Track 3 accurately ripped (confidence 2) [35B9F979] (AR v1)
Track 4 accurately ripped (confidence 2) [1C468F60] (AR v1)
Track 5 accurately ripped (confidence 2) [FFA0B008] (AR v1)
Track 6 accurately ripped (confidence 2) [9E9EDBE1] (AR v1)
Track 7 accurately ripped (confidence 2) [87C42F02] (AR v1)
Track 8 accurately ripped (confidence 2) [67D24DC4] (AR v1)
Track 9 accurately ripped (confidence 2) [5C912329] (AR v1)

All tracks accurately ripped

End of status report

==== Log checksum A41AB8112A5CBB018FF576415FFB17CD1AD7A10838D721A0D20D06341982A9E3 ====



–––––––––––––––––––––––––––––––––––––––––––––

Caravan - 8 Albums (1968-1980) [Japanese Mini LP Collection 2009 - w. Bonus Tracks] RE-UP

Caravan - For Girls Who Grow Plump In The Night (1973) [SHM-CD 2009]
EAC-FLAC with CUE & LOG - 492 MB | Full Scans - 618 MB | MP3 CBR 320 Kbps - 180 MB
Progressive Rock / Symphonic Rock | TT - 78:49 mins | Japanese SHM-CD, based on 2002 Remastering

Caravan - 8 Albums (1968-1980) [Japanese Mini LP Collection 2009 - w. Bonus Tracks] RE-UP

Tracks:

01. Memory Lain, Hugh / Headloss
02. Hoedown
03. Surprise, Surprise
04. C'thlu Thlu
05. The Dog, The Dog, He's At It Again
06. Be All Right / Chance Of A Lifetime
07. L'Auberge Du Sanglier / A Hunting We Shall Go / Pengola / Backwards / A Hunting Shall We Go (Reprise)
08. Memory Lain, Hugh / Headloss (US Mix) [Bonus Track]
09. No! ('Be Alright') / Waffle ('Chance Of A Lifetime') [Bonus Track]
10. He Who Smelt It Dealt It ('Memory Lain, Hugh') [Bonus Track]
11. Surprise, Surprise [Bonus Track]
12. Derek's Long Thing [Bonus Track]

allmusic.com says: After the musical uncertainty of Waterloo Lily, Caravan returned with their most inspired recording since In the Land of the Grey and Pink. The splendidly titled For Girls Who Grow Plump in the Night is several steps ahead in terms of fresh musical ideas that wholly incorporate the band's trademark humor within the otherwise serious and challenging sonic structures. Two of the more dominant reasons for the change in Caravan's sound were the return of keyboardist Dave Sinclair and the addition of violist Peter Geoffrey Richardson. Die-hard fans gladly welcomed Sinclair back, however, Richardson was met with heckles from enthusiasts during live appearances. They were soon silenced as his place on For Girls Who Grow Plump in the Night easily ranks among Caravan's watershed moments. There are perhaps none better than the mesmerizing counterpoint melodies he weaves during the "L'Auberge Du Sanglier" suite. While not completely abandoning their jazz leanings, For Girls Who Grow Plump In The Night is considerably focused back into the rock genre. Ironically, the album also features some rather elaborate orchestration. In context, it is quite effective in creating emphasis – especially on the leadoff track "Memory Lain, Hugh," as well as the dreamy mid-tempo "The Dog, The Dog, He's At It Again." The remastered CD also includes five additional tracks. The first four are demos featuring the band without orchestra and with some notable differences, such as the distinct lead guitar opening to "Memory Lain, Hugh." "Derek's Long Thing" is another instrumental piece penned by keyboardist Derek Austin – one of the two transitional Caravan members chosen to replace Steve Miller. A must-own for inclined parties.

Exact Audio Copy V1.0 beta 3 from 29. August 2011

EAC extraction logfile from 21. February 2012, 21:51

Caravan / For Girls Who Grow Plump In The Night

Used drive : HL-DT-STDVDRAM GSA-H60N Adapter: 2 ID: 0

Read mode : Secure
Utilize accurate stream : Yes
Defeat audio cache : Yes
Make use of C2 pointers : No

Read offset correction : 667
Overread into Lead-In and Lead-Out : No
Fill up missing offset samples with silence : Yes
Delete leading and trailing silent blocks : No
Null samples used in CRC calculations : Yes
Used interface : Native Win32 interface for Win NT & 2000

Used output format : Internal WAV Routines
Sample format : 44.100 Hz; 16 Bit; Stereo


TOC of the extracted CD

Track | Start | Length | Start sector | End sector
––––––––––––––––––––––––––––-
1 | 0:00.00 | 9:14.55 | 0 | 41604
2 | 9:14.55 | 3:18.40 | 41605 | 56494
3 | 12:33.20 | 4:06.05 | 56495 | 74949
4 | 16:39.25 | 6:12.05 | 74950 | 102854
5 | 22:51.30 | 5:56.37 | 102855 | 129591
6 | 28:47.67 | 6:33.65 | 129592 | 159131
7 | 35:21.57 | 10:03.38 | 159132 | 204394
8 | 45:25.20 | 9:18.32 | 204395 | 246276
9 | 54:43.52 | 5:09.60 | 246277 | 269511
10 | 59:53.37 | 4:42.10 | 269512 | 290671
11 | 64:35.47 | 3:15.10 | 290672 | 305306
12 | 67:50.57 | 10:57.70 | 305307 | 354651


Range status and errors

Selected range

Filename C:\Documents and Settings\Admin\Рабочий стол\Rip by ALLexxess\2011 Caravan 8 Mini LP SHM-CD Universal Music Japan\1973 For Girls Who Grow Plump In The Night\Caravan - For Girls Who Grow Plump In The Night.wav

Peak level 98.8 %
Extraction speed 2.1 X
Range quality 99.9 %
Test CRC 2B17A6D6
Copy CRC 2B17A6D6
Copy OK

No errors occurred


AccurateRip summary

Track 1 cannot be verified as accurate (confidence 2) [F3229078], AccurateRip returned [BD26B70B] (AR v2)
Track 2 cannot be verified as accurate (confidence 2) [A8CCF3B9], AccurateRip returned [BB2EE7E6] (AR v2)
Track 3 cannot be verified as accurate (confidence 2) [FC179637], AccurateRip returned [2EABE37E] (AR v2)
Track 4 cannot be verified as accurate (confidence 2) [554DA2C4], AccurateRip returned [F17D316A] (AR v2)
Track 5 cannot be verified as accurate (confidence 2) [1E71C299], AccurateRip returned [EFC7429A] (AR v2)
Track 6 cannot be verified as accurate (confidence 2) [476204F5], AccurateRip returned [FF49DEE6] (AR v2)
Track 7 cannot be verified as accurate (confidence 2) [97617ADE], AccurateRip returned [00680895] (AR v2)
Track 8 not present in database
Track 9 not present in database
Track 10 not present in database
Track 11 not present in database
Track 12 not present in database

7 track(s) could not be verified as accurate
5 track(s) not present in the AccurateRip database

No tracks could be verified as accurate
You may have a different pressing from the one(s) in the database

End of status report

==== Log checksum E023CF1B274B142D3DEA89FEA9029A26A44307BF73A12EC81AE7320DAE115862 ====



–––––––––––––––––––––––––––––––––––––––––––-

Caravan - 8 Albums (1968-1980) [Japanese Mini LP Collection 2009 - w. Bonus Tracks] RE-UP

Caravan - Caravan & The New Symphonia (1974) [SHM-CD 2009]
EAC-FLAC with CUE & LOG - 472 MB | Full Scans - 540 MB | MP3 CBR 320 Kbps - 179 MB
Progressive Rock / Symphonic Rock | TT - 78:18 mins | Japanese SHM-CD, based on 2002 Remastering

Tracks:

01. Introduction By Alan Black
02. Memory Lain, Hugh / Headloss
03. The Dog, The Dog, He's At It Again
04. Hoedown
05. Introduction
06. The Love In Your Eye
07. Mirror For The Day
08. Virgin On The Ridiculous
09. For Richard
10. A Hunting We Shall Go

allmusic.com says: The newly mined creative energies that guided For Girls Who Grow Plump in the Night continued into the Caravan & the New Symphonia project. Fusing with a 39-piece orchestra is a daring move that pays off. The remastered CD includes over a half an hour of unissued material from Caravan, with and without the New Symphonia, during the same October 28, 1973 Theatre Royal concert. Subtitled "The Complete Concert," this performance captures Caravan at a creative zenith. The newly restored program commences with a brief introduction from BBC Radio's Alan Black. The band then presents three from For Girls Who Grow Plump in the Night: "Memory Lain, Hugh"/"Headloss" suite, "The Dog, the Dog, He's at It Again," and "Hoedown." This mini-set sparkles with the frenetic energy that a live audience will often provide. The intense interaction during the waning moments of "The Dog, the Dog, He's at It Again" allow Caravan to reach a whole different stratum. The second set features the orchestra with the band and commences with "Introduction," an orchestrated piece which leads into the very delicate preface of "The Love in Your Eye." The synergies truly begin to flow as the band weaves in and out of the orchestra. Pye Hastings composed two new pieces specifically for this recording: "Mirror for the Day" and the brilliant "Virgin on the Ridiculous"; the latter became a performance standard for Caravan. The remainder of the set features some of their most formidable performance numbers, including an emotive "For Richard." The newly restored encore, "A Hunting We Shall Go" is stunning in it's scope and perfectly encapsulates what Caravan & the New Symphonia is really all about: allowing good music and good musicians the chance to be mutually superior.

Exact Audio Copy V1.0 beta 3 from 29. August 2011

EAC extraction logfile from 20. February 2012, 20:23

Caravan / Caravan & The New Symphonia

Used drive : HL-DT-STDVDRAM GSA-H60N Adapter: 2 ID: 0

Read mode : Secure
Utilize accurate stream : Yes
Defeat audio cache : Yes
Make use of C2 pointers : No

Read offset correction : 667
Overread into Lead-In and Lead-Out : No
Fill up missing offset samples with silence : Yes
Delete leading and trailing silent blocks : No
Null samples used in CRC calculations : Yes
Used interface : Native Win32 interface for Win NT & 2000

Used output format : Internal WAV Routines
Sample format : 44.100 Hz; 16 Bit; Stereo


TOC of the extracted CD

Track | Start | Length | Start sector | End sector
––––––––––––––––––––––––––––-
1 | 0:00.00 | 1:05.00 | 0 | 4874
2 | 1:05.00 | 9:55.00 | 4875 | 49499
3 | 11:00.00 | 6:35.62 | 49500 | 79186
4 | 17:35.62 | 3:54.13 | 79187 | 96749
5 | 21:30.00 | 6:49.70 | 96750 | 127494
6 | 28:19.70 | 12:49.65 | 127495 | 185234
7 | 41:09.60 | 4:29.15 | 185235 | 205424
8 | 45:39.00 | 7:57.60 | 205425 | 241259
9 | 53:36.60 | 14:18.00 | 241260 | 305609
10 | 67:54.60 | 10:23.30 | 305610 | 352364


Range status and errors

Selected range

Filename C:\Documents and Settings\Admin\Рабочий стол\Rip by ALLexxess\2011 Caravan 8 Mini LP SHM-CD Universal Music Japan\1974 Caravan & The New Symphonia\Caravan - Caravan & The New Symphonia.wav

Peak level 98.8 %
Extraction speed 6.3 X
Range quality 100.0 %
Test CRC 5205AC2C
Copy CRC 5205AC2C
Copy OK

No errors occurred


AccurateRip summary

Track 1 accurately ripped (confidence 2) [77749EE7] (AR v1)
Track 2 accurately ripped (confidence 2) [89BD0BA6] (AR v1)
Track 3 accurately ripped (confidence 2) [A6D94E73] (AR v1)
Track 4 accurately ripped (confidence 2) [948EE23E] (AR v1)
Track 5 accurately ripped (confidence 2) [F4358F64] (AR v1)
Track 6 accurately ripped (confidence 2) [FA50E6FC] (AR v1)
Track 7 accurately ripped (confidence 2) [5E4B2366] (AR v1)
Track 8 accurately ripped (confidence 2) [AD28FE45] (AR v1)
Track 9 accurately ripped (confidence 2) [D00523DB] (AR v1)
Track 10 accurately ripped (confidence 2) [3F6F5B95] (AR v1)

All tracks accurately ripped

End of status report

==== Log checksum 705B6943ADCD8C3CD1300460389977CE9AFF256462BD21BB8A5B23C99AC2A099 ====



––––––––––––––––––––––––––––––––––––––––––––

Caravan - 8 Albums (1968-1980) [Japanese Mini LP Collection 2009 - w. Bonus Tracks] RE-UP

Caravan - Cunning Stunts (1975) [SHM-CD 2009]
EAC-FLAC with CUE & LOG - 449 MB | Full Scans - 588 MB | MP3 CBR 320 Kbps - 156 MB
Progressive Rock / Symphonic Rock | TT - 68:50 mins | Japanese SHM-CD, based on 2002 Remastering

Tracks:

01. The Show Of Our Lives
02. Stuck In A Hole
03. Lover
04. No Backstage Pass
05. Welcome The Day
06. The Dabsong Conshirtoe
07. The Fear & Loathing In Tolling Park Rag
08. Stuck In A Hole (Single Version) [Bonus Track]
09. Keeping Back My Love [Bonus Track]
10. For Richard (Recorded Live At The Fairfield Hall, Croydon 1974) [Bonus Track]

allmusic.com says: Contrasting the clever spoonerism from which Cunning Stunts derives its name, Caravan are heard on what is arguably their most uninspired material to date. The effort is certainly far from a total loss, but nowhere nearly as creative as their former studio effort For Girls Who Grow Plump in the Night (1973) – the likes of which sadly would not be equalled. Instead of commencing the affair with the aggression and spirit that informed previous LPs – such as "Memory Lain, Hugh" or "Waterloo Lilly" – which had christened their earlier albums, "The Show of Our Lives" comes off comparatively heavy and practically dirge-like. Caravan's trademark instrumental agility while perhaps temporarily mired, is not lost on Pye Hastings' uptempo rocker "Stuck in a Hole." Heavy-handed, superfluous orchestration – possibly a residual effect of their New Symphonia project from late 1973 – mars "No Backstage Pass" and the 18-minute "Dabsong Conshirtoe." There are a few trademark and at times edgier passages, especially during the "Ben Karratt Rides Again" movement of the epic "Conshirtoe." Still, the orchestration is too slick sounding, as if it were teetering on the aural wallpaper that is (gasp!) Muzak. Caravan enthusiasts intent on including Cunning Stunts in their collections should be aware that the 2001 CD reissue contains a few choice supplementary selections. Chief among these is an unissued take of "Keeping Back My Love" – which would ultimately be reworked three years later on Better by Far (1977). Here the band definitely display signs and sounds of the Caravan of old. For that cut alone, the renovated offering can be sufficiently recommended. The other significant bonus track is a live "For Richard" recorded at Fairfield Hall in Croydon, England. Originally, it was included on the 1976 Canterbury Tales best-of, but makes its digital debut here.

Exact Audio Copy V1.0 beta 3 from 29. August 2011

EAC extraction logfile from 21. February 2012, 20:23

Caravan / Cunning Stunts

Used drive : HL-DT-STDVDRAM GSA-H60N Adapter: 2 ID: 0

Read mode : Secure
Utilize accurate stream : Yes
Defeat audio cache : Yes
Make use of C2 pointers : No

Read offset correction : 667
Overread into Lead-In and Lead-Out : No
Fill up missing offset samples with silence : Yes
Delete leading and trailing silent blocks : No
Null samples used in CRC calculations : Yes
Used interface : Native Win32 interface for Win NT & 2000

Used output format : Internal WAV Routines
Sample format : 44.100 Hz; 16 Bit; Stereo


TOC of the extracted CD

Track | Start | Length | Start sector | End sector
––––––––––––––––––––––––––––-
1 | 0:00.00 | 5:47.47 | 0 | 26071
2 | 5:47.47 | 3:09.70 | 26072 | 40316
3 | 8:57.42 | 5:06.20 | 40317 | 63286
4 | 14:03.62 | 4:34.60 | 63287 | 83896
5 | 18:38.47 | 4:01.10 | 83897 | 101981
6 | 22:39.57 | 18:00.00 | 101982 | 182981
7 | 40:39.57 | 1:10.70 | 182982 | 188301
8 | 41:50.52 | 3:10.60 | 188302 | 202611
9 | 45:01.37 | 5:14.20 | 202612 | 226181
10 | 50:15.57 | 18:34.08 | 226182 | 309739


Range status and errors

Selected range

Filename C:\Documents and Settings\Admin\Рабочий стол\Rip by ALLexxess\2011 Caravan 8 Mini LP SHM-CD Universal Music Japan\1975 Cunning Stunts\Caravan - Cunning Stunts.wav

Peak level 98.8 %
Extraction speed 6.2 X
Range quality 100.0 %
Test CRC 28A1A0DD
Copy CRC 28A1A0DD
Copy OK

No errors occurred


AccurateRip summary

Track 1 accurately ripped (confidence 2) [E50FF30C] (AR v1)
Track 2 accurately ripped (confidence 2) [18C030AE] (AR v1)
Track 3 accurately ripped (confidence 2) [ED09C4C8] (AR v1)
Track 4 accurately ripped (confidence 2) [20687AB3] (AR v1)
Track 5 accurately ripped (confidence 2) [5DFB8866] (AR v1)
Track 6 accurately ripped (confidence 2) [95540A76] (AR v1)
Track 7 accurately ripped (confidence 2) [A31FE28D] (AR v1)
Track 8 accurately ripped (confidence 2) [F4E48C07] (AR v1)
Track 9 accurately ripped (confidence 2) [5E38BE55] (AR v1)
Track 10 accurately ripped (confidence 2) [6B32C688] (AR v1)

All tracks accurately ripped

End of status report

==== Log checksum 72E204839C0C9B55F5A4516A0DD23F928DC641BA5A6A1CFAF4D8A738B2724F73 ====



––––––––––––––––––––––––––––––––––––––––––––––

Caravan - 8 Albums (1968-1980) [Japanese Mini LP Collection 2009 - w. Bonus Tracks] RE-UP

Caravan - The Best Of Caravan Live (1980) [SHM-CD 2009]
EAC-FLAC with CUE & LOG - 540 MB | Full Scans - 640 MB | MP3 CBR 320 Kbps - 182 MB
Progressive Rock / Symphonic Rock | TT - 79:57 mins | Japanese SHM-CD, based on 2002 Remastering

Tracks:

01. Memory Lain, Hugh / Headloss
02. Virgin On The Ridiculous
03. Be Alright / Chance Of A Lifetime
04. The Love In Your Eye
05. L'Auberge Du Sanglier / A Hunting We Shall Go / Pengola / Backwards / A Hunting We Shall Go (Reprise)
06. The Dog, The Dog, He's At It Again
07. For Richard
08. Hoedown

allmusic.com says: By all outward appearances, The Best of Caravan Live seems to fit the description and packaging of a budget release. Indeed, this is what all but the most inquisitive enthusiasts must surely have thought when passing up the French two-LP set in 1980. In actuality, the music contained within these grooves is a performance by Caravan from the Fairfield Halls in Croydon, September 1, 1974. The band used this gig to prepare for their inaugural North American tour. Additionally, the performance was documented in hopes of using the best bits as a promotional tool for their upcoming shows. However, the tapes remained dormant for nearly two years. Then in 1976, the epic "For Richard" was judiciously extracted and subsequently included as an unreleased bonus on the double LP Canterbury Tales retrospective. In 1980, the European-only Kingdom label released an edited and reconfigured version under the name The Best of Caravan Live to little or no fanfare – which is unfortunate, as it contains some of the band's finest live work. Enthusiasts who favor the edgier For Girls Who Grow Plump in the Night era of Caravan should be additionally encouraged, as they re-create most of the album. The show commences with the "Memory Lain, Hugh" and "Headloss" suite. Caravan's performance here firmly ascends to levels that the studio version never achieves, as the band attacks and wraps themselves around the music. Especially notable is the contribution of Geoffrey Richardson's electric viola, as he deftly maneuvers between augmenting the band's vintage sound without ever overpowering it. Caravan's most recent release concurrent to this gig would have been the equally impressive concert set Caravan & the New Symphonia. "Virgin on the Ridiculous" was one of two tracks to make its debut on that release and is featured here in a striking quintet setting that equals the power of the New Symphonia version. This reading is leaner, revealing the band's conversational way of jamming and improvisation. It is no contest as to why "For Richard" was used on the Canterbury Tales compilation. The moody and emotive arrangement takes on several distinct personae throughout. In 2000, the entire "classic" Caravan catalog was researched, remastered, and subsequently reissued. During the exhaustive search that ensued, master tapes for this complete performance were recovered. After a thorough sonic scrubbing, Live at the Fairfield Halls, 1974 was released in March 2002. Not only is the sound undeniably better, but also the concert is re-created in its entirety – restoring "Chance of a Lifetime" (which is listed on the LP jacket, however, edited from the disc) – and placing "Hoedown" back in the encore spot.

Exact Audio Copy V1.0 beta 3 from 29. August 2011

EAC extraction logfile from 22. February 2012, 20:34

Caravan / Live At The Fairfield Halls, 1974

Used drive : HL-DT-STDVDRAM GSA-H60N Adapter: 2 ID: 0

Read mode : Secure
Utilize accurate stream : Yes
Defeat audio cache : Yes
Make use of C2 pointers : No

Read offset correction : 667
Overread into Lead-In and Lead-Out : No
Fill up missing offset samples with silence : Yes
Delete leading and trailing silent blocks : No
Null samples used in CRC calculations : Yes
Used interface : Native Win32 interface for Win NT & 2000

Used output format : Internal WAV Routines
Sample format : 44.100 Hz; 16 Bit; Stereo


TOC of the extracted CD

Track | Start | Length | Start sector | End sector
––––––––––––––––––––––––––––-
1 | 0:00.00 | 9:27.72 | 0 | 42596
2 | 9:27.72 | 7:14.30 | 42597 | 75176
3 | 16:42.27 | 6:37.48 | 75177 | 104999
4 | 23:20.00 | 15:23.65 | 105000 | 174289
5 | 38:43.65 | 9:49.15 | 174290 | 218479
6 | 48:33.05 | 6:24.00 | 218480 | 247279
7 | 54:57.05 | 19:01.47 | 247280 | 332901
8 | 73:58.52 | 5:58.18 | 332902 | 359769


Range status and errors

Selected range

Filename C:\Documents and Settings\Admin\Рабочий стол\Rip by ALLexxess\2011 Caravan 8 Mini LP SHM-CD Universal Music Japan\1980 Live At Fairfield Halls, 1974\Caravan - Live At The Fairfield Halls, 1974.wav

Peak level 98.8 %
Extraction speed 3.4 X
Range quality 100.0 %
Test CRC 489D6737
Copy CRC 489D6737
Copy OK

No errors occurred


AccurateRip summary

Track 1 accurately ripped (confidence 1) [AEDD13FC] (AR v1)
Track 2 accurately ripped (confidence 1) [61EFEC39] (AR v1)
Track 3 accurately ripped (confidence 1) [518B79DD] (AR v1)
Track 4 accurately ripped (confidence 1) [D2D5091B] (AR v1)
Track 5 accurately ripped (confidence 1) [9263D737] (AR v1)
Track 6 accurately ripped (confidence 1) [667F19CC] (AR v1)
Track 7 accurately ripped (confidence 1) [6CBDEF7F] (AR v1)
Track 8 accurately ripped (confidence 1) [4DC0C2AC] (AR v1)

All tracks accurately ripped

End of status report

==== Log checksum F0EDBC5B12F855B2C16102436CBBB96360DAC118D4E4199577F5E641F6FD0F39 ====


Dynamic Range(s): 11 / 11 / 12 / 11 / 12 / 12 / 10 / 11.
all thanks goes to ALLexxess!
Caravan (1968)
FLAC | Scans | MP3 320

If I Could Do It All Over Again (1970)
FLAC | Scans | MP3 320

In The Land Of Grey And Pink (1971)
FLAC | Scans | MP3 320

Waterloo Lily (1972)
FLAC | Scans | MP3 320

For Girls Who Grow Plump In The Night (1973)
FLAC | Scans | MP3 320

Caravan & The New Symphonia (1974)
FLAC | Scans | MP3 320

Cunning Stunts (1975)
FLAC | Scans | MP3 320

The Best Of Caravan Live (1980)
FLAC | Scans | MP3 320
Caravan (1968)
FLAC | Scans | MP3 320

If I Could Do It All Over Again (1970)
FLAC | Scans | MP3 320

In The Land Of Grey And Pink (1971)
FLAC | Scans | MP3 320

Waterloo Lily (1972)
FLAC | Scans | MP3 320

For Girls Who Grow Plump In The Night (1973)
FLAC | Scans | MP3 320

Caravan & The New Symphonia (1974)
FLAC | Scans | MP3 320

Cunning Stunts (1975)
FLAC | Scans | MP3 320

The Best Of Caravan Live (1980)
FLAC | Scans | MP3 320