Subcategories

Carousel Vertigo - Revenge of Rock and Roll (2017)

Posted By: Domestos
Carousel Vertigo - Revenge of Rock and Roll (2017)

Carousel Vertigo - Revenge of Rock and Roll (2017)
XLD Rip | FLAC (image+.cue, log) ~ 347.98 Mb | 47:01 | Covers
Hard-Rock | Country: France | Label: Molano Music - MM003

Rock is dead, long live rock! It’s been said before and will be said again. The truth is that rock music is and always will be here to stay, especially when a band like Carousel Vertigo creates, feels and plays it like it does. "Revenge Of Rock And Roll". The title says it all and the second album by Carousel Vertigo makes a clear musical statement about a trend-proof musical genre, about its importance, now and always, to the loyal millions who will forever support it – and about how that shit just never grows old, say what you will about it.

"Revenge Of Rock And Roll" finds Paris-based Carousel Vertigo – three native French rockers and an American – doing what this band does best and loves the most, regardless of opinions or passing phases, because hard rock truly is timeless and ever-present. Carousel Vertigo’s masterful take on it, the band’s innate understanding of the history of rock’s past and a vision of its future, is convincing and current enough to have attracted some stellar accomplices on "Revenge Of Rock And Roll" – not least among them Garry Tallent, long-serving bass player with Bruce Springsteen’s E Street Band, who happily guested for ‘a bottle of Bourgogne’ on one of the album’s ten tracks.

The nucleus of the band, Gibson Guitars-endorsed Parisian Vincent Martinez and New Jersey native-son Jansen Press, formed Carousel Vertigo purely out of a shared love of the classic rock music they both reveled and could play so well. Although each came from a different culture and country, they were instantly united by the other’s ability to express that music in different but complementary ways – and a dual-lead guitar partnership of virtuosity and instinct was born. Riding above it all, Vincent’s vocal – one moment a pure, hair-raising wail, the next soulful and sweetly emotive honey – establishes Carousel Vertigo as the real deal.

The best band you’ve never heard playing the greatest music you think you already know but don’t. (RR)

Track List:
01. No More Hesitatin' 04:40
02. Honey Do 03:57
03. Revenge of Rock And Roll 04:19
04. Jackie Run Run 04:10
05. Hideaway 04:24
06. Hard Luck Lover 04:35
07. Get It On 04:09
08. Well Alright 04:38
09. Don't Take It To Heart 06:33
10. I May, I Might 05:12

Carousel Vertigo - Revenge of Rock and Roll (2017)

X Lossless Decoder version 20161007 (149.3)

XLD extraction logfile from 2017-12-18 18:48:08 +0100

Carousel Vertigo / Revenge Of Rock And Roll

Used drive : HL-DT-ST DVDRW GX40N (revision RQ00)
Media type : Pressed CD

Ripper mode : XLD Secure Ripper
Disable audio cache : OK for the drive with a cache less than 1375KiB
Make use of C2 pointers : NO
Read offset correction : 6
Max retry count : 100
Gap status : Analyzed, Appended

TOC of the extracted CD
Track | Start | Length | Start sector | End sector
––––––––––––––––––––––––––––-
1 | 00:00:00 | 04:42:68 | 0 | 21217
2 | 04:42:68 | 04:00:45 | 21218 | 39262
3 | 08:43:38 | 04:21:01 | 39263 | 58838
4 | 13:04:39 | 04:12:51 | 58839 | 77789
5 | 17:17:15 | 04:26:05 | 77790 | 97744
6 | 21:43:20 | 04:37:09 | 97745 | 118528
7 | 26:20:29 | 04:11:50 | 118529 | 137403
8 | 30:32:04 | 04:40:15 | 137404 | 158418
9 | 35:12:19 | 06:36:15 | 158419 | 188133
10 | 41:48:34 | 05:12:74 | 188134 | 211607

AccurateRip Summary
Disc not found in AccurateRip DB.

All Tracks
Filename : /Users/likewendy/Desktop/EXTRACTION XLD/01 Carousel Vertigo - Revenge Of Rock And Roll.flac
Album gain : -10.12 dB
Peak : 0.958038
CRC32 hash (test run) : F77FC67B
CRC32 hash : F77FC67B
CRC32 hash (skip zero) : 87234FC2
Statistics
Read error : 0
Jitter error (maybe fixed) : 0
Retry sector count : 0
Damaged sector count : 0

Track 01
Pre-gap length : 00:02:00

Track gain : -10.12 dB
Peak : 0.957977
CRC32 hash (test run) : 7F3CDA81
CRC32 hash : 7F3CDA81
CRC32 hash (skip zero) : F93ED682
AccurateRip v1 signature : 73EB35D0
AccurateRip v2 signature : 82FCDC72
->Track not present in AccurateRip database.
Statistics
Read error : 0
Jitter error (maybe fixed) : 0
Retry sector count : 0
Damaged sector count : 0

Track 02

Track gain : -9.68 dB
Peak : 0.957977
CRC32 hash (test run) : D71BCC0A
CRC32 hash : D71BCC0A
CRC32 hash (skip zero) : F4B1DC4A
AccurateRip v1 signature : B78F64A3
AccurateRip v2 signature : 38BE7699
->Track not present in AccurateRip database.
Statistics
Read error : 0
Jitter error (maybe fixed) : 0
Retry sector count : 0
Damaged sector count : 0

Track 03

Track gain : -10.61 dB
Peak : 0.957977
CRC32 hash (test run) : 6B9F7806
CRC32 hash : 6B9F7806
CRC32 hash (skip zero) : 455E617E
AccurateRip v1 signature : 94614A34
AccurateRip v2 signature : 0CA19EC0
->Track not present in AccurateRip database.
Statistics
Read error : 0
Jitter error (maybe fixed) : 0
Retry sector count : 0
Damaged sector count : 0

Track 04

Track gain : -10.13 dB
Peak : 0.958008
CRC32 hash (test run) : E58635F5
CRC32 hash : E58635F5
CRC32 hash (skip zero) : B5166596
AccurateRip v1 signature : 665C18E9
AccurateRip v2 signature : 0CBDC5D9
->Track not present in AccurateRip database.
Statistics
Read error : 0
Jitter error (maybe fixed) : 0
Retry sector count : 0
Damaged sector count : 0

Track 05

Track gain : -9.96 dB
Peak : 0.957977
CRC32 hash (test run) : C535D8A3
CRC32 hash : C535D8A3
CRC32 hash (skip zero) : 1B85FD95
AccurateRip v1 signature : B500261C
AccurateRip v2 signature : CABB2AD6
->Track not present in AccurateRip database.
Statistics
Read error : 0
Jitter error (maybe fixed) : 0
Retry sector count : 0
Damaged sector count : 0

Track 06

Track gain : -9.76 dB
Peak : 0.958008
CRC32 hash (test run) : 209E7EDE
CRC32 hash : 209E7EDE
CRC32 hash (skip zero) : 499DC74F
AccurateRip v1 signature : 784BEBC1
AccurateRip v2 signature : 00C80A43
->Track not present in AccurateRip database.
Statistics
Read error : 0
Jitter error (maybe fixed) : 0
Retry sector count : 0
Damaged sector count : 0

Track 07

Track gain : -10.11 dB
Peak : 0.957977
CRC32 hash (test run) : 35377994
CRC32 hash : 35377994
CRC32 hash (skip zero) : FBE47F8C
AccurateRip v1 signature : FBC91602
AccurateRip v2 signature : F6C42548
->Track not present in AccurateRip database.
Statistics
Read error : 0
Jitter error (maybe fixed) : 0
Retry sector count : 0
Damaged sector count : 0

Track 08

Track gain : -9.70 dB
Peak : 0.958038
CRC32 hash (test run) : E846CC6A
CRC32 hash : E846CC6A
CRC32 hash (skip zero) : 2F323B9B
AccurateRip v1 signature : 0E30EB81
AccurateRip v2 signature : 33AD46DD
->Track not present in AccurateRip database.
Statistics
Read error : 0
Jitter error (maybe fixed) : 0
Retry sector count : 0
Damaged sector count : 0

Track 09

Track gain : -10.42 dB
Peak : 0.957977
CRC32 hash (test run) : EBABDDC2
CRC32 hash : EBABDDC2
CRC32 hash (skip zero) : 409E0C53
AccurateRip v1 signature : 557BFFA0
AccurateRip v2 signature : 76A9FDBF
->Track not present in AccurateRip database.
Statistics
Read error : 0
Jitter error (maybe fixed) : 0
Retry sector count : 0
Damaged sector count : 0

Track 10

Track gain : -9.94 dB
Peak : 0.958038
CRC32 hash (test run) : 74E7AA87
CRC32 hash : 74E7AA87
CRC32 hash (skip zero) : D1E1FC87
AccurateRip v1 signature : 7BDD116F
AccurateRip v2 signature : BC02B2C4
->Track not present in AccurateRip database.
Statistics
Read error : 0
Jitter error (maybe fixed) : 0
Retry sector count : 0
Damaged sector count : 0

No errors occurred

End of status report

All thanks go to the likewendy

More Music in My Blog
Follow My RSS Channel