Subcategories

The Carpenters - Christmas Collection 2CD (1996)

Posted By: Speedyclick
The Carpenters - Christmas Collection 2CD (1996)

The Carpenters - Christmas Collection 2CD (1996)
2CD EAC Rip | FLAC (tracks & cue & log) | tracks: 31 | ~ 565 Mb | 1:38:39 | Covers
Label: A&M Records | Genre: Xmas songs

One of the most beautiful Xmas albums you can ever hear. Sweet Karen Carpenter wishes you Merry Christmas and her voice touches directly your heart. A special Xmas gift.

TRACKLIST

CD1 - Christmas Portrait
01. O Come, O Come Emmanuel
02. Overture (medley)
03. The Christmas Waltz
04. Sleigh Ride
05. It's Christmas Time / Sleep Well, Little Children
06. Have Yourself A Merry Little Christmas
07. Santa Claus Is Coming To Town
08. The Christmas Song
09. Silent Night
10. Jingle Bells
11. The First Snowfall/let It Snow, Let It Snow, Let It Snow
12. Carol Of The Bells
13. Merry Christmas Darling
14. I'll Be Home For Christmas
15. Christ Is Born
16. Medley: Winter Wonderland / Silver Bells / White Christmas
17. Ave Maria

CD2 - An Old-Fashioned Christmas
01. It Came Upon A Midnight Clear
02. Overture: Happy Holiday, The First Noel, March Of The Toys, Little Jesus, I Saw Mommy Kissing Santa
03. An Old-Fashioned Christmas
04. O Holy Night
05. (There's No Place Like) Home For The Holidays
06. Medley: Here Comes Santa Claus, Frosty The Snowman, Rudolph The Red-Nosed Reindeer, Good King Wence
07. Little Altar Boy
08. Do You Hear What I Hear?
09. My Favorite Things
10. He Came Here For Me
11. Santa Claus Is Coming To Town
12. What Are You Doing New Year's Eve?
13. Selections From 'The Nutcracker': Overture Miniature, Dance Of The Sugar Plum Fairy, Trepak, Valse
14. I Heard The Bells On Christmas Day

Exact Audio Copy V0.99 prebeta 4 from 23. January 2008

EAC extraction logfile from 20. December 2010, 12:56

The Carpenters / Christmas Collection - CD 1

Used drive : HL-DT-STDVDRAM GSA-T20N Adapter: 1 ID: 0

Read mode : Secure
Utilize accurate stream : Yes
Defeat audio cache : Yes
Make use of C2 pointers : No

Read offset correction : 667
Overread into Lead-In and Lead-Out : No
Fill up missing offset samples with silence : Yes
Delete leading and trailing silent blocks : No
Null samples used in CRC calculations : Yes
Used interface : Installed external ASPI interface
Gap handling : Appended to previous track

Used output format : User Defined Encoder
Selected bitrate : 768 kBit/s
Quality : High
Add ID3 tag : No
Command line compressor : C:\Program Files\FLAC\flac.exe
Additional command line options : -8 -V -T "artist=%a" -T "title=%t" -T "album=%g" -T "date=%y" -T "tracknumber=%n" -T "genre=%m" %s


TOC of the extracted CD

Track | Start | Length | Start sector | End sector
––––––––––––––––––––––––––––-
1 | 0:00.33 | 0:28.12 | 33 | 2144
2 | 0:28.45 | 4:39.53 | 2145 | 23122
3 | 5:08.23 | 2:13.65 | 23123 | 33162
4 | 7:22.13 | 2:38.67 | 33163 | 45079
5 | 10:01.05 | 2:55.03 | 45080 | 58207
6 | 12:56.08 | 3:54.40 | 58208 | 75797
7 | 16:50.48 | 1:05.17 | 75798 | 80689
8 | 17:55.65 | 3:40.00 | 80690 | 97189
9 | 21:35.65 | 3:19.70 | 97190 | 112184
10 | 24:55.60 | 1:11.60 | 112185 | 117569
11 | 26:07.45 | 3:33.50 | 117570 | 133594
12 | 29:41.20 | 1:39.03 | 133595 | 141022
13 | 31:20.23 | 3:05.47 | 141023 | 154944
14 | 34:25.70 | 3:50.33 | 154945 | 172227
15 | 38:16.28 | 3:14.62 | 172228 | 186839
16 | 41:31.15 | 5:30.58 | 186840 | 211647
17 | 47:01.73 | 2:35.72 | 211648 | 223344


Track 1

Filename C:\ista\01 - The Carpenters - O Come, O Come Emmanuel.wav

Pre-gap length 0:00:02.33

Peak level 61.4 %
Track quality 100.0 %
Test CRC 04B8E0A9
Copy CRC 04B8E0A9
Accurately ripped (confidence 2) [7DEA2586]
Copy OK

Track 2

Filename C:\ista\02 - The Carpenters - Overturexdeck The Hallsx.wav

Peak level 99.8 %
Track quality 100.0 %
Test CRC 1EEF5E22
Copy CRC 1EEF5E22
Accurately ripped (confidence 2) [85200A37]
Copy OK

Track 3

Filename C:\ista\03 - The Carpenters - The Christmas Waltz.wav

Peak level 95.2 %
Track quality 100.0 %
Test CRC 0DE9E58C
Copy CRC 0DE9E58C
Accurately ripped (confidence 2) [160B35B7]
Copy OK

Track 4

Filename C:\ista\04 - The Carpenters - Sleigh Ride.wav

Peak level 99.8 %
Track quality 100.0 %
Test CRC 07F3C772
Copy CRC 07F3C772
Accurately ripped (confidence 2) [3FA71CDE]
Copy OK

Track 5

Filename C:\ista\05 - The Carpenters - It's Christmas Time , Sleep Well, Little Children.wav

Peak level 99.8 %
Track quality 100.0 %
Test CRC 230EF5C2
Copy CRC 230EF5C2
Accurately ripped (confidence 2) [562D4A97]
Copy OK

Track 6

Filename C:\ista\06 - The Carpenters - Have Yourself A Merry Little Christmas.wav

Peak level 99.3 %
Track quality 100.0 %
Test CRC 7013C755
Copy CRC 7013C755
Accurately ripped (confidence 2) [4A9B7656]
Copy OK

Track 7

Filename C:\ista\07 - The Carpenters - Santa Claus Is Coming To Town.wav

Peak level 95.5 %
Track quality 100.0 %
Test CRC 1D619EAC
Copy CRC 1D619EAC
Accurately ripped (confidence 2) [C06619EA]
Copy OK

Track 8

Filename C:\ista\08 - The Carpenters - The Christmas Song.wav

Peak level 89.4 %
Track quality 100.0 %
Test CRC 7BBE534D
Copy CRC 7BBE534D
Accurately ripped (confidence 2) [E05C5FA0]
Copy OK

Track 9

Filename C:\ista\09 - The Carpenters - Silent Night.wav

Peak level 72.0 %
Track quality 100.0 %
Test CRC 37B0CE07
Copy CRC 37B0CE07
Accurately ripped (confidence 2) [A4C8FF6A]
Copy OK

Track 10

Filename C:\ista\10 - The Carpenters - Jingle Bells.wav

Peak level 99.8 %
Track quality 100.0 %
Test CRC BA36A1E9
Copy CRC BA36A1E9
Accurately ripped (confidence 2) [1671A6C8]
Copy OK

Track 11

Filename C:\ista\11 - The Carpenters - The First Snowfall,let It Snow, Let It Snow, Let It Snow.wav

Peak level 99.8 %
Track quality 100.0 %
Test CRC 071439D1
Copy CRC 071439D1
Accurately ripped (confidence 2) [B88D1690]
Copy OK

Track 12

Filename C:\ista\12 - The Carpenters - Carol Of The Bells.wav

Peak level 89.2 %
Track quality 100.0 %
Test CRC 8873189E
Copy CRC 8873189E
Accurately ripped (confidence 2) [9BBA3706]
Copy OK

Track 13

Filename C:\ista\13 - The Carpenters - Merry Christmas Darling.wav

Peak level 99.5 %
Track quality 99.9 %
Test CRC 80BABEA0
Copy CRC 80BABEA0
Accurately ripped (confidence 2) [88104FCA]
Copy OK

Track 14

Filename C:\ista\14 - The Carpenters - I'll Be Home For Christmas.wav

Peak level 91.7 %
Track quality 99.9 %
Test CRC F50555DF
Copy CRC F50555DF
Accurately ripped (confidence 2) [2B28CE94]
Copy OK

Track 15

Filename C:\ista\15 - The Carpenters - Christ Is Born.wav

Peak level 87.2 %
Track quality 100.0 %
Test CRC CB99651A
Copy CRC CB99651A
Accurately ripped (confidence 2) [9387E94A]
Copy OK

Track 16

Filename C:\ista\16 - The Carpenters - Winter Wonderland_silver Bells_white Christmas.wav

Peak level 99.8 %
Track quality 100.0 %
Test CRC 3653F7B2
Copy CRC 3653F7B2
Accurately ripped (confidence 2) [F2B14094]
Copy OK

Track 17

Filename C:\ista\17 - The Carpenters - Ave Maria.wav

Peak level 91.6 %
Track quality 100.0 %
Test CRC 66E703D5
Copy CRC 66E703D5
Cannot be verified as accurate (confidence 5) [B4A17D66], AccurateRip returned [03AC4AF1]
Copy OK


16 track(s) accurately ripped
1 track(s) could not be verified as accurate

Some tracks could not be verified as accurate

No errors occurred

End of status report

Exact Audio Copy V0.99 prebeta 4 from 23. January 2008

EAC extraction logfile from 20. December 2010, 13:52

The Carpenters / Christmas Collection - CD 2

Used drive : HL-DT-STDVDRAM GSA-T20N Adapter: 1 ID: 0

Read mode : Secure
Utilize accurate stream : Yes
Defeat audio cache : Yes
Make use of C2 pointers : No

Read offset correction : 667
Overread into Lead-In and Lead-Out : No
Fill up missing offset samples with silence : Yes
Delete leading and trailing silent blocks : No
Null samples used in CRC calculations : Yes
Used interface : Installed external ASPI interface
Gap handling : Appended to previous track

Used output format : User Defined Encoder
Selected bitrate : 768 kBit/s
Quality : High
Add ID3 tag : No
Command line compressor : C:\Program Files\FLAC\flac.exe
Additional command line options : -8 -V -T "artist=%a" -T "title=%t" -T "album=%g" -T "date=%y" -T "tracknumber=%n" -T "genre=%m" %s


TOC of the extracted CD

Track | Start | Length | Start sector | End sector
––––––––––––––––––––––––––––-
1 | 0:00.33 | 0:43.00 | 33 | 3257
2 | 0:43.33 | 8:14.62 | 3258 | 40369
3 | 8:58.20 | 2:14.43 | 40370 | 50462
4 | 11:12.63 | 3:10.12 | 50463 | 64724
5 | 14:23.00 | 2:35.70 | 64725 | 76419
6 | 16:58.70 | 3:43.40 | 76420 | 93184
7 | 20:42.35 | 3:43.70 | 93185 | 109979
8 | 24:26.30 | 2:53.20 | 109980 | 122974
9 | 27:19.50 | 3:54.10 | 122975 | 140534
10 | 31:13.60 | 2:12.48 | 140535 | 150482
11 | 33:26.33 | 4:04.40 | 150483 | 168822
12 | 37:30.73 | 2:51.65 | 168823 | 181712
13 | 40:22.63 | 6:15.07 | 181713 | 209844
14 | 46:37.70 | 2:24.58 | 209845 | 220702


Track 1

Filename C:\ista\01 - The Carpenters - It Came Upon A Midnight Clear.wav

Pre-gap length 0:00:02.33

Peak level 99.0 %
Track quality 100.0 %
Test CRC 1971E1C6
Copy CRC 1971E1C6
Accurately ripped (confidence 2) [1517F510]
Copy OK

Track 2

Filename C:\ista\02 - The Carpenters - Overture- Happy Holiday, The First Noel, March Of The Toys, Little Jesus, I Saw Mommy Kissing Santa.wav

Peak level 99.8 %
Track quality 100.0 %
Test CRC 183C6D49
Copy CRC 183C6D49
Accurately ripped (confidence 2) [CFDD1C30]
Copy OK

Track 3

Filename C:\ista\03 - The Carpenters - An Old-Fashioned Christmas.wav

Peak level 99.8 %
Track quality 100.0 %
Test CRC 68579A2E
Copy CRC 68579A2E
Accurately ripped (confidence 2) [4F645344]
Copy OK

Track 4

Filename C:\ista\04 - The Carpenters - O Holy Night.wav

Peak level 99.8 %
Track quality 100.0 %
Test CRC 199EA479
Copy CRC 199EA479
Accurately ripped (confidence 2) [11D85514]
Copy OK

Track 5

Filename C:\ista\05 - The Carpenters - (There's No Place Like) Home For The Holidays.wav

Peak level 99.8 %
Track quality 100.0 %
Test CRC 7B78CA87
Copy CRC 7B78CA87
Accurately ripped (confidence 2) [F0CB1980]
Copy OK

Track 6

Filename C:\ista\06 - The Carpenters - Medley- Here Comes Santa Claus, Frosty The Snowman, Rudolph The Red-Nosed Reindeer, Good King Wence.wav

Peak level 99.8 %
Track quality 100.0 %
Test CRC 3DA21D4C
Copy CRC 3DA21D4C
Accurately ripped (confidence 2) [7044490E]
Copy OK

Track 7

Filename C:\ista\07 - The Carpenters - Little Altar Boy.wav

Peak level 99.8 %
Track quality 100.0 %
Test CRC 3DAC6A8A
Copy CRC 3DAC6A8A
Accurately ripped (confidence 2) [CD7F4D74]
Copy OK

Track 8

Filename C:\ista\08 - The Carpenters - Do You Hear What I Hear .wav

Peak level 99.8 %
Track quality 100.0 %
Test CRC EBF870C1
Copy CRC EBF870C1
Accurately ripped (confidence 2) [FC35B7D5]
Copy OK

Track 9

Filename C:\ista\09 - The Carpenters - My Favorite Things.wav

Peak level 99.8 %
Track quality 100.0 %
Test CRC 4C2A27BC
Copy CRC 4C2A27BC
Accurately ripped (confidence 2) [08C2BB5C]
Copy OK

Track 10

Filename C:\ista\10 - The Carpenters - He Came Here For Me.wav

Peak level 95.1 %
Track quality 100.0 %
Test CRC 147E99D9
Copy CRC 147E99D9
Accurately ripped (confidence 2) [3BB935BE]
Copy OK

Track 11

Filename C:\ista\11 - The Carpenters - Santa Claus Is Coming To Town.wav

Peak level 99.8 %
Track quality 100.0 %
Test CRC BBE2CDA5
Copy CRC BBE2CDA5
Accurately ripped (confidence 2) [DE7B007F]
Copy OK

Track 12

Filename C:\ista\12 - The Carpenters - What Are You Doing New Year's Eve .wav

Peak level 99.8 %
Track quality 100.0 %
Test CRC 3762C88C
Copy CRC 3762C88C
Accurately ripped (confidence 2) [F2333AC3]
Copy OK

Track 13

Filename C:\ista\13 - The Carpenters - Selections From 'The Nutcracker'- Overture Miniature, Dance Of The Sugar Plum Fairy, Trepak, Valse.wav

Peak level 99.8 %
Track quality 100.0 %
Test CRC F728B703
Copy CRC F728B703
Accurately ripped (confidence 2) [340B8848]
Copy OK

Track 14

Filename C:\ista\14 - The Carpenters - I Heard The Bells On Christmas Day.wav

Peak level 99.1 %
Track quality 100.0 %
Test CRC C1F11A3B
Copy CRC C1F11A3B
Cannot be verified as accurate (confidence 5) [C19D28D5], AccurateRip returned [2454BEAA]
Copy OK


13 track(s) accurately ripped
1 track(s) could not be verified as accurate

Some tracks could not be verified as accurate

No errors occurred

End of status report

Download Fileserve
CD1 | CD2