Subcategories

Casiopea - The Party - Audio Stack (1990)

Posted By: Jansky
Casiopea - The Party - Audio Stack (1990)


Casiopea - The Party - Audio Stack (1990)
EAC Rip | FLAC, Tracks + CUE, LOG | 348 MB | MP3 CBR 320 Kbps | 108 MB | Complete Scans | 10 MB
Jazz-rock, Fusion | Label: JASRAC | Catalog Number: PICL-1006 | RAR 3% Rec. | RS.com, DF.com

This one is the audio version of a live dvd released by Casiopea in 1990. This album marked the joining of Yoshihiro Naruse (bass) and Masaaki Hiyama (drums) to the band.

Tracklist:

01. Cyber Zone
02. ???
03. Illusion
04. Nostalgia
05. Flush Up
06. Stormy Hearts
07. ???
08. Romancing
09. ????
10. Golden Island
11. The Party Night
12. ???

The Musicians:

Issei Noro: Guitars
Minoru Mukaiya: Keyboards
Yoshihiro Naruse: Bass
Masaaki Hiyama: Drums

Sound produced by Casiopea
Produced by Taketsune Kubo

Exact Audio Copy V0.99 prebeta 4 from 23. January 2008

EAC extraction logfile from 30. April 2009, 12:36

Casiopea / The Party - Audio Stack

Used drive : HL-DT-STRW/DVD GCC-4480B Adapter: 1 ID: 0

Read mode : Secure
Utilize accurate stream : Yes
Defeat audio cache : Yes
Make use of C2 pointers : No

Read offset correction : 6
Overread into Lead-In and Lead-Out : No
Fill up missing offset samples with silence : Yes
Delete leading and trailing silent blocks : No
Null samples used in CRC calculations : No
Used interface : Installed external ASPI interface
Gap handling : Appended to previous track

Used output format : User Defined Encoder
Selected bitrate : 768 kBit/s
Quality : High
Add ID3 tag : No
Command line compressor : C:\Program Files\Exact Audio Copy\FLAC\FLAC.EXE
Additional command line options : -6 -V -T "ARTIST=%a" -T "TITLE=%t" -T "ALBUM=%g" -T "DATE=%y" -T "TRACKNUMBER=%n" -T "GENRE=%m" -T "COMMENT=%e" %s -o %d


TOC of the extracted CD

Track | Start | Length | Start sector | End sector
––––––––––––––––––––––––––––-
1 | 0:00.00 | 3:54.40 | 0 | 17589
2 | 3:54.40 | 4:10.17 | 17590 | 36356
3 | 8:04.57 | 4:03.50 | 36357 | 54631
4 | 12:08.32 | 4:42.38 | 54632 | 75819
5 | 16:50.70 | 4:18.42 | 75820 | 95211
6 | 21:09.37 | 3:02.45 | 95212 | 108906
7 | 24:12.07 | 4:25.55 | 108907 | 128836
8 | 28:37.62 | 3:37.43 | 128837 | 145154
9 | 32:15.30 | 4:17.40 | 145155 | 164469
10 | 36:32.70 | 4:22.57 | 164470 | 184176
11 | 40:55.52 | 3:39.05 | 184177 | 200606
12 | 44:34.57 | 4:29.40 | 200607 | 220821


Track 1

Filename D:\Uploads\Casiopea - The Party-Audio Stack\01 - CYBER ZONE.wav

Pre-gap length 0:00:02.00

Peak level 100.0 %
Track quality 100.0 %
Copy CRC A2D16038
Accurately ripped (confidence 1) [E6D219FE]
Copy OK

Track 2

Filename D:\Uploads\Casiopea - The Party-Audio Stack\02 - (the blue fire).wav

Peak level 100.0 %
Track quality 100.0 %
Copy CRC C0FF8093
Accurately ripped (confidence 1) [F5FA49A6]
Copy OK

Track 3

Filename D:\Uploads\Casiopea - The Party-Audio Stack\03 - ILLUSION.wav

Peak level 100.0 %
Track quality 100.0 %
Copy CRC 5A6A23A4
Accurately ripped (confidence 1) [0BC71C56]
Copy OK

Track 4

Filename D:\Uploads\Casiopea - The Party-Audio Stack\04 - NOSTALGIA.wav

Peak level 100.0 %
Track quality 100.0 %
Copy CRC D9A90055
Accurately ripped (confidence 1) [8322EFE3]
Copy OK

Track 5

Filename D:\Uploads\Casiopea - The Party-Audio Stack\05 - FLUSH UP.wav

Peak level 100.0 %
Track quality 100.0 %
Copy CRC 79F2BA20
Accurately ripped (confidence 1) [D1C7A05D]
Copy OK

Track 6

Filename D:\Uploads\Casiopea - The Party-Audio Stack\06 - STORMY HEARTS.wav

Peak level 100.0 %
Track quality 99.9 %
Copy CRC 62931D05
Accurately ripped (confidence 1) [C5CB6DDA]
Copy OK

Track 7

Filename D:\Uploads\Casiopea - The Party-Audio Stack\07 - (an eyewitness).wav

Peak level 100.0 %
Track quality 100.0 %
Copy CRC DD61645A
Accurately ripped (confidence 1) [1704E89B]
Copy OK

Track 8

Filename D:\Uploads\Casiopea - The Party-Audio Stack\08 - ROMANCING.wav

Peak level 91.8 %
Track quality 100.0 %
Copy CRC B03E0336
Cannot be verified as accurate (confidence 1) [0B919A3F], AccurateRip returned [F3A7AC68]
Copy OK

Track 9

Filename D:\Uploads\Casiopea - The Party-Audio Stack\09 - (the palpitation).wav

Peak level 100.0 %
Track quality 100.0 %
Copy CRC 3A8E08EE
Cannot be verified as accurate (confidence 1) [F2633E4F], AccurateRip returned [21F54295]
Copy OK

Track 10

Filename D:\Uploads\Casiopea - The Party-Audio Stack\10 - GOLDEN ISLAND.wav

Peak level 100.0 %
Track quality 100.0 %
Copy CRC F32C3136
Accurately ripped (confidence 1) [F2A6B849]
Copy OK

Track 11

Filename D:\Uploads\Casiopea - The Party-Audio Stack\11 - THE PARTY NIGHT.wav

Peak level 100.0 %
Track quality 100.0 %
Copy CRC F408F957
Accurately ripped (confidence 1) [5AD5F3CD]
Copy OK

Track 12

Filename D:\Uploads\Casiopea - The Party-Audio Stack\12 - (the big globe).wav

Peak level 100.0 %
Track quality 100.0 %
Copy CRC 68DFD13B
Accurately ripped (confidence 1) [DBA6CB02]
Copy OK


0 track(s) accurately ripped
2 track(s) could not be verified as accurate

Some tracks could not be verified as accurate

No errors occurred

End of status report


Download Rapidshare:

in Lossless
part1 | part2 | part3 | part4

MP3 lossy files
MP3

Artwork
Covers

Download Depositfiles:

in Lossless
part1 | part2 | part3 | part4

MP3 lossy files
MP3

Artwork
Covers

Don't post mirrors, please

My Blog