Subcategories

Cast – All Change (1995)

Posted By: muddboogers
Cast – All Change (1995)

Cast – All Change (1995)
EAC | FLAC Image with CUE & LOG | 65:00 mins | Scans | RAR 3% Recovery | 388 MB
Alternative Rock / Britpop | 1995 Polydor Records, A&M Records #31452 9312 2

Cast's All Change serves as the perfect antidote to the inner rage fueling much American alternative rock – it would be hard to imagine a more gloriously upbeat backbeat of a guitar pop record, one that appeals to the eternal adolescent in each of us. The group's pedigree derives from good stock, founder John Power having served time with another fine Mersey combo the La's. But Cast transcends the hackneyed expectations of its environment, structure, and genetics through sheer, relentless quality of songcraft and performance. No sooner has one wide-eyed, hook-infested injection stormed the synapses demanding total capitulation than another of equal potency lines up to take its place. Cast vocals recall Small Faces-era Steve Marriott fused, in places, to Suede's Brett Anderson. There's a soft-psych feel to several tracks (try "Sandstorm") that calls to mind "Pictures of Matchstick Men"-era Status Quo; Cast has clearly assimilated several volumes of Bam Caruso's Rubble and A.I.P.'s Electric Sugarcube Flashbacks series, without sacrificing its power-Mod backbone. Production is brittle and uncluttered. On the lyrics front, all is positively cheery, anthemic stuff about truth, honor, living well, having fun and getting the girl, delivered exuberantly enough to strip away several coats of accumulated cynicism and almost make you believe it's possible. Two favorites are the shifting falsetto angst anthem "Tell It Like Is" and the ballad "Walk Away" – a clue to how Mott the Hoople's "Roll Away the Stone" would have come out recorded in 1967. ~ Roch Parisien, allmusic.com
All Change @ Discogs

Tracklist:
1. Alright
2. Promised Land
3. Sandstorm
4. Mankind
5. Tell It Like It Is
6. Four Walls
7. Fine Time
8. Back Of My Mind
9. Walkaway
10. Reflections
11. History
12. Two Of A Kind (Includes an unlisted instrumental track)

Exact Audio Copy V1.0 beta 2 from 29. April 2011

EAC extraction logfile from 10. August 2011, 19:54

Cast / All Change

Used drive : TDK CDRW4800B Adapter: 2 ID: 1

Read mode : Secure
Utilize accurate stream : Yes
Defeat audio cache : Yes
Make use of C2 pointers : No

Read offset correction : 6
Overread into Lead-In and Lead-Out : No
Fill up missing offset samples with silence : Yes
Delete leading and trailing silent blocks : No
Null samples used in CRC calculations : Yes
Used interface : Native Win32 interface for Win NT & 2000

Used output format : Internal WAV Routines
Sample format : 44.100 Hz; 16 Bit; Stereo


TOC of the extracted CD

Track | Start | Length | Start sector | End sector
––––––––––––––––––––––––––––-
1 | 0:00.00 | 3:37.12 | 0 | 16286
2 | 3:37.12 | 4:37.45 | 16287 | 37106
3 | 8:14.57 | 2:41.28 | 37107 | 49209
4 | 10:56.10 | 3:45.07 | 49210 | 66091
5 | 14:41.17 | 4:41.40 | 66092 | 87206
6 | 19:22.57 | 3:10.15 | 87207 | 101471
7 | 22:32.72 | 3:06.48 | 101472 | 115469
8 | 25:39.45 | 3:04.65 | 115470 | 129334
9 | 28:44.35 | 3:51.60 | 129335 | 146719
10 | 32:36.20 | 3:05.22 | 146720 | 160616
11 | 35:41.42 | 4:25.13 | 160617 | 180504
12 | 40:06.55 | 25:01.05 | 180505 | 293084


Range status and errors

Selected range

Filename E:\[# AvaxHome #]\Cast - All Change.wav

Peak level 99.4 %
Extraction speed 10.1 X
Range quality 100.0 %
Test CRC D276D95C
Copy CRC D276D95C
Copy OK

No errors occurred


AccurateRip summary

Track 1 accurately ripped (confidence 3) [4D350BB5] (AR v2)
Track 2 accurately ripped (confidence 3) [94934033] (AR v2)
Track 3 accurately ripped (confidence 3) [FCAD4259] (AR v2)
Track 4 accurately ripped (confidence 3) [70660005] (AR v2)
Track 5 accurately ripped (confidence 3) [75932870] (AR v2)
Track 6 accurately ripped (confidence 3) [569C1A35] (AR v2)
Track 7 accurately ripped (confidence 3) [59BD48A7] (AR v2)
Track 8 accurately ripped (confidence 3) [576E1394] (AR v2)
Track 9 accurately ripped (confidence 3) [593CDD1B] (AR v2)
Track 10 accurately ripped (confidence 3) [BF7B746B] (AR v2)
Track 11 accurately ripped (confidence 3) [AA001689] (AR v2)
Track 12 accurately ripped (confidence 3) [5F39C0A2] (AR v2)

All tracks accurately ripped

End of status report

==== Log checksum A30C58E25737074E3A82BECF8FC7A72DAC4A9B651836F5320FF748128E05A44D ====

FileServe
Part 1
Part 2

FileSonic
Part 1
Part 2

Interchangeable archives

Password: www.AvaxHome.ws