Subcategories

Emilio de' Cavalieri - Rappresentatione di Anima e di Corpo - René Jacobs (2015) {Harmonia Mundi}

Posted By: ruskaval
Emilio de' Cavalieri - Rappresentatione di Anima e di Corpo - René Jacobs (2015) {Harmonia Mundi}

Emilio de' Cavalieri - Rappresentatione di Anima e di Corpo - René Jacobs (2015) {Harmonia Mundi}
EAC rip (secure mode) | FLAC (tracks)+CUE+LOG -> 484 Mb | MP3 @320 -> 233 Mb
Full Artwork @ 300 dpi (jpg) -> 30 Mb | 5% repair rar
© 2015 Harmonia Mundi | HMC 902200.01
Classical / Vocal Music / Renaissance / Opera / Oratorio

Composed at a time when neither oratorio nor opera existed, Emilio de' Cavalieri's musical drama Rappresentatione di anima et di corpo combines song, stage action, dance, and instrumental music in perfect harmony. The work's libretto, attributed to Agostino Manni, presents a musical morality play in which soul and body dispute, with the participation of other allegorical characters and angels and souls both in heaven and hell. On this new recording, maestro Rene Jacobs illuminates this key work, which was written at the dawn of the Baroque revolution.
Emilio de' Cavalieri - Rappresentatione di Anima e di Corpo - René Jacobs (2015) {Harmonia Mundi}

Composed at a time when neither oratorio nor opera existed, this 'Rappresentatione' premiered in February 1600 is a magisterial musical drama. In its dialogue between Soul and Body, an emblematic theme of the Counter-Reformation, employing singers, chorus, and an extensive orchestra whose varied timbres both accompany and characterise the soloists. At the dawn of the Baroque revolution, song, stage action, dance, and instrumental music combine in perfect harmony. Since the 'Rappresentatione' is fully staged, in three acts with a spoken prologue, it can be considered to be the first surviving opera as such.

Emilio de‘ Cavalieri already had an eventful artistic life behind him when he gave the 'Rappresentatione' in February 1600 at the Oratorio della Vallicella in Rome. He was born around 1550 into a wealthy aristocratic Roman family, the son of Tommaso de‘ Cavalieri, Michelangelo’s closest friend and who had easy access to the Vatican as an adviser in artistic matters. It is there that Emilio must have got to know Ferdinando de‘ Medici, the sixth son of the Grand Duke of Tuscany. When Ferdinando, after the death of his older brothers, doffed the cardinal’s purple to become Grand Duke of Tuscany, he took Cavalieri with him to Florence and appointed him intendant of court festivities. Cavalieri was responsible for the famous musical intermedi to 'La Pellegrina' of 1589, staged for the Grand Duke’s marriage, regarded as the most important forerunner of opera.

In subsequent years he maintained close diplomatic relations with the papal court on behalf of the Grand Duke and commuted regularly back and forth between Florence and Rome. Hence he came to assist Pope Clement VIII in the artistic organisation of the Holy Year 1600. It was on this occasion that he presented a work for which he claimed to have invented ‘recitar cantando’ – sung dramatic declamation – a few months before the first operas were produced in Florence in October 1600, during celebrations accompanying the wedding of Maria de‘ Medici with the King of France. Cavalieri himself scarcely had an opportunity to contribute to the further development of musical drama. Almost exactly two years after the performance of the Rappresentatione, he died in his native city. A memorial tablet in S. Maria in Aracoeli still reminds visitors today that he lies buried in this church on the Capitol.

Booklet includes ‘Let every thing that hath breath . . .’ notes on the work and on performance practice by René Jacobs and full libretto.

Presto Classical INFO

Personnel:
Marie-Claude Chappuis (Anima)
Johannes Weisser (Corpo)
Gyula Orendt (Tempo, Consiglio)
Mark Milhofer (Inteletto, Piacere)
Marcos Fink (Mondo, Secondo Compagno di Piacere, Anima dannata)

Staatsopernchor
Concerto Vocale
Akademie für Alte Musik Berlin

René Jacobs


tracklist:
CD1

01 - Sinfonia (Johann Hermann Schein from 'Banchetto Musicale', 1617)
02 - Choro 'O Signor santo e vero'
03 - Proemio
04 - Atto I Sc.1 - Tempo 'Il tempo, il tempo fugge'
05 - Atto I Sc.2 - Choro 'Questa vita mortale'
06 - Atto I Sc.3 - Intelletto 'Ogni cor ama il bene'
07 - Atto I Sc.4 - Il Corpo 'Anima mia che pensi'
08 - Atto I Sc.5 - Choro 'Il Ciel clemente ogn'or gratia e favore'
09 - Atto I - Sinfonia
10 - Atto II Sc.1 - Choro 'Benedite il Signor, perch'egli e buono'
11 - Atto II Sc.2 - Consiglio 'La nostra vita in terra'
12 - Atto II Sc.3 - Choro 'O, quanti errori e tenebre'
13 - Atto II Sc.4 - Il Piacere 'chi gioia vuol, chi brama'

Emilio de' Cavalieri - Rappresentatione di Anima e di Corpo - René Jacobs (2015) {Harmonia Mundi}


CD2
01 - Atto II Sc.5 - Il Corpo 'Non so s'e stato bene'
02 - Atto II Sc.6 - L'Angelo Custode 'Fortissimi guerrieri'
03 - Atto II Sc.7 - Il Mondo 'Io son, io son il Mondo'
04 - Atto II Sc.8 - L'Angelo Custode 'Al forte vincitore'
05 - Atto II Sc.9 - Choro 'Dopo brevi sudori'
06 - Atto II - Sinfonia
07 - Atto III Sc.1 - L'Intelletto 'Salite pur al Cielo'
08 - Atto III Sc.2 - Il Consiglio 'Voi che siete la giu'
09 - Atto III Sc.3 - L'Intelletto 'Alme ch'in Ciel godete'
10 - Atto III Sc.4 - Il Consiglio 'Anime sfortunate'
11 - Atto III Sc.5 - L'intelletto 'Alme beate e belle'
12 - Atto III Sc.6 - Il Consiglio 'Alma, la pena e'l danno'
13 - Atto III Sc.7 - L'intelletto 'Alme, la vostra Gloria'
14 - Atto III Sc.8 - Consiglio 'Gloria sia a Dio superno'
15 - Atto III Sc.9 - Tutti 'O Signor santo e vero'
16 - Atto III - Festa

Emilio de' Cavalieri - Rappresentatione di Anima e di Corpo - René Jacobs (2015) {Harmonia Mundi}


Exact Audio Copy V1.1 from 23. June 2015

EAC extraction logfile from 4. September 2015, 16:46

Cavalieri / Rappresentatione di Anima e di Corpo cd1

Used drive : ATAPI iHBS112 2 Adapter: 1 ID: 0

Read mode : Secure
Utilize accurate stream : Yes
Defeat audio cache : Yes
Make use of C2 pointers : No

Read offset correction : 6
Overread into Lead-In and Lead-Out : No
Fill up missing offset samples with silence : Yes
Delete leading and trailing silent blocks : No
Null samples used in CRC calculations : Yes
Used interface : Native Win32 interface for Win NT & 2000
Gap handling : Appended to previous track

Used output format : User Defined Encoder
Selected bitrate : 1024 kBit/s
Quality : High
Add ID3 tag : No
Command line compressor : C:\Program Files\Exact Audio Copy\Flac\flac.exe
Additional command line options : -8 -V -T "ARTIST=%artist%" -T "TITLE=%title%" -T "ALBUM=%albumtitle%" -T "DATE=%year%" -T "TRACKNUMBER=%tracknr%" -T "TOTALTRACKS=%numtracks%" -T "GENRE=%genre%" -T "ALBUMARTIST=%albumartist%" -T "ALBUM ARTIST=%albumartist%" -T "COMPOSER=%composer%" -T "PERFORMER=%albuminterpret%" -T "DISCNUMBER=%cdnumber%" -T "TOTALDISCS=%totalcds%" -T "COMMENT=EAC Secure Mode, Test & Copy, AccurateRip, FLAC -8" %source%


TOC of the extracted CD

Track | Start | Length | Start sector | End sector
––––––––––––––––––––––––––––-
1 | 0:00.00 | 1:50.34 | 0 | 8283
2 | 1:50.34 | 1:26.49 | 8284 | 14782
3 | 3:17.08 | 6:23.09 | 14783 | 43516
4 | 9:40.17 | 2:42.67 | 43517 | 55733
5 | 12:23.09 | 2:33.73 | 55734 | 67281
6 | 14:57.07 | 3:08.26 | 67282 | 81407
7 | 18:05.33 | 5:11.66 | 81408 | 104798
8 | 23:17.24 | 2:30.58 | 104799 | 116106
9 | 25:48.07 | 1:24.67 | 116107 | 122473
10 | 27:12.74 | 0:39.50 | 122474 | 125448
11 | 27:52.49 | 1:49.71 | 125449 | 133694
12 | 29:42.45 | 1:43.39 | 133695 | 141458
13 | 31:26.09 | 6:49.35 | 141459 | 172168


Track 1

Filename P:\DL\Cavalieri - Rappresentatione di Anima e di Corpo cd1 (2015) [FLAC]\01 - Sinfonia (Johann Hermann Schein from 'Banchetto Musicale', 1617).wav

Pre-gap length 0:00:02.00

Peak level 47.3 %
Extraction speed 4.1 X
Track quality 100.0 %
Test CRC A48925BD
Copy CRC A48925BD
Accurately ripped (confidence 4) [EF868E40] (AR v2)
Copy OK

Track 2

Filename P:\DL\Cavalieri - Rappresentatione di Anima e di Corpo cd1 (2015) [FLAC]\02 - Choro 'O Signor santo e vero'.wav

Peak level 89.1 %
Extraction speed 2.9 X
Track quality 99.8 %
Test CRC 6867FEB8
Copy CRC 6867FEB8
Accurately ripped (confidence 4) [88C3B95B] (AR v2)
Copy OK

Track 3

Filename P:\DL\Cavalieri - Rappresentatione di Anima e di Corpo cd1 (2015) [FLAC]\03 - Proemio.wav

Peak level 89.2 %
Extraction speed 5.3 X
Track quality 99.9 %
Test CRC 3CEC5BC2
Copy CRC 3CEC5BC2
Accurately ripped (confidence 4) [B1C9B098] (AR v2)
Copy OK

Track 4

Filename P:\DL\Cavalieri - Rappresentatione di Anima e di Corpo cd1 (2015) [FLAC]\04 - Atto I Sc.1 - Tempo 'Il tempo, il tempo fugge'.wav

Peak level 67.3 %
Extraction speed 5.8 X
Track quality 100.0 %
Test CRC 35025388
Copy CRC 35025388
Accurately ripped (confidence 4) [48C36834] (AR v2)
Copy OK

Track 5

Filename P:\DL\Cavalieri - Rappresentatione di Anima e di Corpo cd1 (2015) [FLAC]\05 - Atto I Sc.2 - Choro 'Questa vita mortale'.wav

Peak level 38.1 %
Extraction speed 6.0 X
Track quality 100.0 %
Test CRC F9626F19
Copy CRC F9626F19
Accurately ripped (confidence 4) [8919B98A] (AR v2)
Copy OK

Track 6

Filename P:\DL\Cavalieri - Rappresentatione di Anima e di Corpo cd1 (2015) [FLAC]\06 - Atto I Sc.3 - Intelletto 'Ogni cor ama il bene'.wav

Peak level 54.5 %
Extraction speed 6.5 X
Track quality 100.0 %
Test CRC E49BC54B
Copy CRC E49BC54B
Accurately ripped (confidence 4) [371C1CDE] (AR v2)
Copy OK

Track 7

Filename P:\DL\Cavalieri - Rappresentatione di Anima e di Corpo cd1 (2015) [FLAC]\07 - Atto I Sc.4 - Il Corpo 'Anima mia che pensi'.wav

Peak level 72.1 %
Extraction speed 7.3 X
Track quality 100.0 %
Test CRC E82014C8
Copy CRC E82014C8
Accurately ripped (confidence 4) [798ACBE2] (AR v2)
Copy OK

Track 8

Filename P:\DL\Cavalieri - Rappresentatione di Anima e di Corpo cd1 (2015) [FLAC]\08 - Atto I Sc.5 - Choro 'Il Ciel clemente ogn'or gratia e favore'.wav

Peak level 89.1 %
Extraction speed 6.7 X
Track quality 100.0 %
Test CRC 4225652A
Copy CRC 4225652A
Accurately ripped (confidence 4) [BD9C39E8] (AR v2)
Copy OK

Track 9

Filename P:\DL\Cavalieri - Rappresentatione di Anima e di Corpo cd1 (2015) [FLAC]\09 - Atto I - Sinfonia.wav

Peak level 40.4 %
Extraction speed 6.1 X
Track quality 100.0 %
Test CRC 4A65D962
Copy CRC 4A65D962
Accurately ripped (confidence 4) [26D32411] (AR v2)
Copy OK

Track 10

Filename P:\DL\Cavalieri - Rappresentatione di Anima e di Corpo cd1 (2015) [FLAC]\10 - Atto II Sc.1 - Choro 'Benedite il Signor, perch'egli e buono'.wav

Pre-gap length 0:00:07.81

Peak level 84.5 %
Extraction speed 4.7 X
Track quality 100.0 %
Test CRC 85F8BD90
Copy CRC 85F8BD90
Accurately ripped (confidence 4) [7D595F2B] (AR v2)
Copy OK

Track 11

Filename P:\DL\Cavalieri - Rappresentatione di Anima e di Corpo cd1 (2015) [FLAC]\11 - Atto II Sc.2 - Consiglio 'La nostra vita in terra'.wav

Peak level 88.0 %
Extraction speed 6.8 X
Track quality 100.0 %
Test CRC FC73888C
Copy CRC FC73888C
Accurately ripped (confidence 4) [8BF10FB9] (AR v2)
Copy OK

Track 12

Filename P:\DL\Cavalieri - Rappresentatione di Anima e di Corpo cd1 (2015) [FLAC]\12 - Atto II Sc.3 - Choro 'O, quanti errori e tenebre'.wav

Peak level 69.3 %
Extraction speed 6.8 X
Track quality 100.0 %
Test CRC E465BA7E
Copy CRC E465BA7E
Accurately ripped (confidence 4) [939A6F6E] (AR v2)
Copy OK

Track 13

Filename P:\DL\Cavalieri - Rappresentatione di Anima e di Corpo cd1 (2015) [FLAC]\13 - Atto II Sc.4 - Il Piacere 'chi gioia vuol, chi brama'.wav

Peak level 88.6 %
Extraction speed 8.5 X
Track quality 100.0 %
Test CRC 8607C5BB
Copy CRC 8607C5BB
Accurately ripped (confidence 4) [79715D05] (AR v2)
Copy OK


All tracks accurately ripped

No errors occurred

End of status report

–– CUETools DB Plugin V2.1.6

[CTDB TOCID: PzMEVoXJPdBEPq2XBgKji_YLlDE-] found
Submit result:
Track | CTDB Status
1 | (8/8) Accurately ripped
2 | (8/8) Accurately ripped
3 | (8/8) Accurately ripped
4 | (8/8) Accurately ripped
5 | (8/8) Accurately ripped
6 | (8/8) Accurately ripped
7 | (8/8) Accurately ripped
8 | (8/8) Accurately ripped
9 | (8/8) Accurately ripped
10 | (8/8) Accurately ripped
11 | (8/8) Accurately ripped
12 | (8/8) Accurately ripped
13 | (8/8) Accurately ripped


==== Log checksum 7934AFACF653522ACE2C8D20B8A40A073BBB9EF103C05DEE7040076E5E020FBE ====

Exact Audio Copy V1.1 from 23. June 2015

EAC extraction logfile from 4. September 2015, 17:13

Cavalieri / Rappresentatione di Anima e di Corpo cd2

Used drive : ATAPI iHBS112 2 Adapter: 1 ID: 0

Read mode : Secure
Utilize accurate stream : Yes
Defeat audio cache : Yes
Make use of C2 pointers : No

Read offset correction : 6
Overread into Lead-In and Lead-Out : No
Fill up missing offset samples with silence : Yes
Delete leading and trailing silent blocks : No
Null samples used in CRC calculations : Yes
Used interface : Native Win32 interface for Win NT & 2000
Gap handling : Appended to previous track

Used output format : User Defined Encoder
Selected bitrate : 1024 kBit/s
Quality : High
Add ID3 tag : No
Command line compressor : C:\Program Files\Exact Audio Copy\Flac\flac.exe
Additional command line options : -8 -V -T "ARTIST=%artist%" -T "TITLE=%title%" -T "ALBUM=%albumtitle%" -T "DATE=%year%" -T "TRACKNUMBER=%tracknr%" -T "TOTALTRACKS=%numtracks%" -T "GENRE=%genre%" -T "ALBUMARTIST=%albumartist%" -T "ALBUM ARTIST=%albumartist%" -T "COMPOSER=%composer%" -T "PERFORMER=%albuminterpret%" -T "DISCNUMBER=%cdnumber%" -T "TOTALDISCS=%totalcds%" -T "COMMENT=EAC Secure Mode, Test & Copy, AccurateRip, FLAC -8" %source%


TOC of the extracted CD

Track | Start | Length | Start sector | End sector
––––––––––––––––––––––––––––-
1 | 0:00.00 | 2:37.16 | 0 | 11790
2 | 2:37.16 | 1:41.48 | 11791 | 19413
3 | 4:18.64 | 11:03.17 | 19414 | 69155
4 | 15:22.06 | 2:29.71 | 69156 | 80401
5 | 17:52.02 | 4:04.67 | 80402 | 98768
6 | 21:56.69 | 1:54.36 | 98769 | 107354
7 | 23:51.30 | 4:53.39 | 107355 | 129368
8 | 28:44.69 | 2:02.68 | 129369 | 138586
9 | 30:47.62 | 2:37.20 | 138587 | 150381
10 | 33:25.07 | 1:14.51 | 150382 | 155982
11 | 34:39.58 | 2:35.00 | 155983 | 167607
12 | 37:14.58 | 1:04.00 | 167608 | 172407
13 | 38:18.58 | 3:04.30 | 172408 | 186237
14 | 41:23.13 | 1:16.37 | 186238 | 191974
15 | 42:39.50 | 5:48.30 | 191975 | 218104
16 | 48:28.05 | 6:05.19 | 218105 | 245498


Track 1

Filename P:\DL\Cavalieri - Rappresentatione di Anima e di Corpo cd2 (2015) [FLAC]\01 - Atto II Sc.5 - Il Corpo 'Non so s'e stato bene'.wav

Pre-gap length 0:00:02.00

Peak level 63.6 %
Extraction speed 4.6 X
Track quality 100.0 %
Test CRC BD3F6156
Copy CRC BD3F6156
Accurately ripped (confidence 4) [BAF07550] (AR v2)
Copy OK

Track 2

Filename P:\DL\Cavalieri - Rappresentatione di Anima e di Corpo cd2 (2015) [FLAC]\02 - Atto II Sc.6 - L'Angelo Custode 'Fortissimi guerrieri'.wav

Peak level 74.6 %
Extraction speed 4.4 X
Track quality 100.0 %
Test CRC 513E6A91
Copy CRC 513E6A91
Accurately ripped (confidence 4) [DB16C25C] (AR v2)
Copy OK

Track 3

Filename P:\DL\Cavalieri - Rappresentatione di Anima e di Corpo cd2 (2015) [FLAC]\03 - Atto II Sc.7 - Il Mondo 'Io son, io son il Mondo'.wav

Peak level 88.9 %
Extraction speed 6.4 X
Track quality 100.0 %
Test CRC D371E62E
Copy CRC D371E62E
Accurately ripped (confidence 4) [1958E563] (AR v2)
Copy OK

Track 4

Filename P:\DL\Cavalieri - Rappresentatione di Anima e di Corpo cd2 (2015) [FLAC]\04 - Atto II Sc.8 - L'Angelo Custode 'Al forte vincitore'.wav

Peak level 64.7 %
Extraction speed 5.8 X
Track quality 100.0 %
Test CRC B8F3FDFB
Copy CRC B8F3FDFB
Accurately ripped (confidence 4) [F20A023D] (AR v2)
Copy OK

Track 5

Filename P:\DL\Cavalieri - Rappresentatione di Anima e di Corpo cd2 (2015) [FLAC]\05 - Atto II Sc.9 - Choro 'Dopo brevi sudori'.wav

Peak level 76.6 %
Extraction speed 6.9 X
Track quality 100.0 %
Test CRC 1D42513A
Copy CRC 1D42513A
Accurately ripped (confidence 4) [A46FC82B] (AR v2)
Copy OK

Track 6

Filename P:\DL\Cavalieri - Rappresentatione di Anima e di Corpo cd2 (2015) [FLAC]\06 - Atto II - Sinfonia.wav

Peak level 59.9 %
Extraction speed 6.2 X
Track quality 100.0 %
Test CRC B7FCC6D1
Copy CRC B7FCC6D1
Accurately ripped (confidence 4) [29F16223] (AR v2)
Copy OK

Track 7

Filename P:\DL\Cavalieri - Rappresentatione di Anima e di Corpo cd2 (2015) [FLAC]\07 - Atto III Sc.1 - L'Intelletto 'Salite pur al Cielo'.wav

Pre-gap length 0:00:08.06

Peak level 89.0 %
Extraction speed 7.7 X
Track quality 100.0 %
Test CRC F05AA4A2
Copy CRC F05AA4A2
Accurately ripped (confidence 4) [EAFFB7E3] (AR v2)
Copy OK

Track 8

Filename P:\DL\Cavalieri - Rappresentatione di Anima e di Corpo cd2 (2015) [FLAC]\08 - Atto III Sc.2 - Il Consiglio 'Voi che siete la giu'.wav

Peak level 89.3 %
Extraction speed 6.8 X
Track quality 100.0 %
Test CRC 5C1EFA97
Copy CRC 5C1EFA97
Accurately ripped (confidence 4) [42A7B841] (AR v2)
Copy OK

Track 9

Filename P:\DL\Cavalieri - Rappresentatione di Anima e di Corpo cd2 (2015) [FLAC]\09 - Atto III Sc.3 - L'Intelletto 'Alme ch'in Ciel godete'.wav

Peak level 89.1 %
Extraction speed 7.5 X
Track quality 100.0 %
Test CRC 8FA263C2
Copy CRC 8FA263C2
Accurately ripped (confidence 4) [C8D70AD4] (AR v2)
Copy OK

Track 10

Filename P:\DL\Cavalieri - Rappresentatione di Anima e di Corpo cd2 (2015) [FLAC]\10 - Atto III Sc.4 - Il Consiglio 'Anime sfortunate'.wav

Peak level 89.2 %
Extraction speed 4.1 X
Track quality 99.8 %
Test CRC 16D5D7CD
Copy CRC 16D5D7CD
Accurately ripped (confidence 4) [C1AD3295] (AR v2)
Copy OK

Track 11

Filename P:\DL\Cavalieri - Rappresentatione di Anima e di Corpo cd2 (2015) [FLAC]\11 - Atto III Sc.5 - L'intelletto 'Alme beate e belle'.wav

Peak level 89.1 %
Extraction speed 5.9 X
Track quality 99.9 %
Test CRC CD55052E
Copy CRC CD55052E
Accurately ripped (confidence 4) [9AFEE1EB] (AR v2)
Copy OK

Track 12

Filename P:\DL\Cavalieri - Rappresentatione di Anima e di Corpo cd2 (2015) [FLAC]\12 - Atto III Sc.6 - Il Consiglio 'Alma, la pena e'l danno'.wav

Peak level 89.1 %
Extraction speed 6.2 X
Track quality 100.0 %
Test CRC 51059549
Copy CRC 51059549
Accurately ripped (confidence 4) [4C120043] (AR v2)
Copy OK

Track 13

Filename P:\DL\Cavalieri - Rappresentatione di Anima e di Corpo cd2 (2015) [FLAC]\13 - Atto III Sc.7 - L'intelletto 'Alme, la vostra Gloria'.wav

Peak level 67.4 %
Extraction speed 8.0 X
Track quality 100.0 %
Test CRC 6AE9F711
Copy CRC 6AE9F711
Accurately ripped (confidence 4) [999A095B] (AR v2)
Copy OK

Track 14

Filename P:\DL\Cavalieri - Rappresentatione di Anima e di Corpo cd2 (2015) [FLAC]\14 - Atto III Sc.8 - Consiglio 'Gloria sia a Dio superno'.wav

Peak level 50.3 %
Extraction speed 6.6 X
Track quality 100.0 %
Test CRC D0C6521B
Copy CRC D0C6521B
Accurately ripped (confidence 4) [B971E6DE] (AR v2)
Copy OK

Track 15

Filename P:\DL\Cavalieri - Rappresentatione di Anima e di Corpo cd2 (2015) [FLAC]\15 - Atto III Sc.9 - Tutti 'O Signor santo e vero'.wav

Peak level 89.1 %
Extraction speed 8.7 X
Track quality 100.0 %
Test CRC 2682E326
Copy CRC 2682E326
Accurately ripped (confidence 4) [61A3F587] (AR v2)
Copy OK

Track 16

Filename P:\DL\Cavalieri - Rappresentatione di Anima e di Corpo cd2 (2015) [FLAC]\16 - Atto III - Festa.wav

Peak level 89.1 %
Extraction speed 9.1 X
Track quality 100.0 %
Test CRC 7ACFADA5
Copy CRC 7ACFADA5
Accurately ripped (confidence 4) [057F0DAE] (AR v2)
Copy OK


All tracks accurately ripped

No errors occurred

End of status report

–– CUETools DB Plugin V2.1.6

[CTDB TOCID: e2TKnM41CwlHVekCE2ferIkILvc-] found
Submit result:
Track | CTDB Status
1 | (6/6) Accurately ripped
2 | (6/6) Accurately ripped
3 | (6/6) Accurately ripped
4 | (6/6) Accurately ripped
5 | (6/6) Accurately ripped
6 | (6/6) Accurately ripped
7 | (6/6) Accurately ripped
8 | (6/6) Accurately ripped
9 | (6/6) Accurately ripped
10 | (6/6) Accurately ripped
11 | (6/6) Accurately ripped
12 | (6/6) Accurately ripped
13 | (6/6) Accurately ripped
14 | (6/6) Accurately ripped
15 | (6/6) Accurately ripped
16 | (6/6) Accurately ripped


==== Log checksum D2517F2503568802569E537B9D5B582B71A7AD92E0E757B155219B462E891877 ====


Emilio de' Cavalieri - Rappresentatione di Anima e di Corpo - René Jacobs (2015) {Harmonia Mundi}


thanks to dtromp…