Subcategories

Charles McPherson - Siku Ya Bibi (1972) {2017 Japan Mainstream Records Master Collection Series CDSOL-45219}

Posted By: ruskaval
Charles McPherson - Siku Ya Bibi (1972) {2017 Japan Mainstream Records Master Collection Series CDSOL-45219}

Charles McPherson - Siku Ya Bibi (1972) {2017 Japan Mainstream Records Master Collection Series CDSOL-45219}
EAC rip (secure mode) | FLAC (tracks)+CUE+LOG -> 299 Mb | MP3 @320 -> 111 Mb
Full Artwork @ 300 dpi (jpg) -> 15 Mb | 5% repair rar
© 1972, 2017 Time / Mainstream Records / Solid Records Japan | CDSOL-45216
Jazz / Bop / Hard Bop / Mainstream Jazz / Saxophone

For the second of his three Mainstream sessions (one that has been reissued on CD), the bebop altoist Charles McPherson pays tribute to Billie Holiday; in fact, "Siku Ya Bibi" means "Day of the Lady" in Swahili. The emphasis is mostly on ballads, with "Miss Brown to You" and "Lover Come Back to Me" being exceptions. Four of the eight selections find McPherson backed by ten strings arranged by Ernie Wilkins, while the remainder of the date has the altoist joined by a rhythm section that includes pianist Barry Harris. Although not quite up to the level of his upcoming, more freewheeling Xanadu sessions, this is a fine outing. Highlights include the two aforementioned cooking pieces, "Lover Man," "Good Morning Heartache," and "I'm a Fool to Want You."
Charles McPherson - Siku Ya Bibi (1972) {2017 Japan Mainstream Records Master Collection Series CDSOL-45219}


Musicians
Saxophone Charles McPherson
Piano Barry Harris
Guitar Earl Dunbar
Bass Sam Jones
Drums Leroy Williams
Arrangements, Conductor Ernie Wilkins
Violin Max Ellen
Violin Gene Orloff
Violin David Nadien
Violin Selwart Clarke
Violin Emanuel Green
Viola Julian Barber
Viola Alfred V. Brown
Cello Kermit Moore
Cello Alan Shulman

Charles McPherson - Siku Ya Bibi (1972) {2017 Japan Mainstream Records Master Collection Series CDSOL-45219}


Tracklisting
01 Don't Explain 04:31
02 Lover Man (Oh Where Can You Be) 05:03
03 God Bless The Child 04:33
04 Miss Brown To You 04:47
05 Good Morning Heartache 04:22
06 For Heaven's Sake 05:08
07 I'm A Fool To Want You 04:48
08 Lover Come Back To Me 07:05
09 My Funny Valentine 07:42

Exact Audio Copy V1.1 from 23. June 2015

EAC extraction logfile from 17. January 2018, 17:52

Charles McPherson / Siku Ya Bibi

Used drive : MATSHITADVD+-RW SW830 Adapter: 1 ID: 0

Read mode : Secure
Utilize accurate stream : Yes
Defeat audio cache : Yes
Make use of C2 pointers : No

Read offset correction : 6
Overread into Lead-In and Lead-Out : No
Fill up missing offset samples with silence : Yes
Delete leading and trailing silent blocks : No
Null samples used in CRC calculations : Yes
Used interface : Native Win32 interface for Win NT & 2000
Gap handling : Appended to previous track

Used output format : User Defined Encoder
Selected bitrate : 896 kBit/s
Quality : High
Add ID3 tag : No
Command line compressor : C:\Program Files (x86)\Exact Audio Copy\Flac\flac.exe
Additional command line options : -8 -V -T "ARTIST=%artist%" -T "TITLE=%title%" -T "ALBUM=%albumtitle%" -T "DATE=%year%" -T "TRACKNUMBER=%tracknr%" -T "TOTALTRACKS=%numtracks%" -T "GENRE=%genre%" -T "ALBUMARTIST=%albumartist%" -T "ALBUM ARTIST=%albumartist%" -T "COMMENT=EAC Secure Mode, Test & Copy, AccurateRip, FLAC -8" %source%


TOC of the extracted CD

Track | Start | Length | Start sector | End sector
––––––––––––––––––––––––––––-
1 | 0:00.00 | 4:31.31 | 0 | 20355
2 | 4:31.31 | 5:02.69 | 20356 | 43074
3 | 9:34.25 | 4:32.59 | 43075 | 63533
4 | 14:07.09 | 4:47.19 | 63534 | 85077
5 | 18:54.28 | 4:21.49 | 85078 | 104701
6 | 23:16.02 | 5:07.47 | 104702 | 127773
7 | 28:23.49 | 4:47.64 | 127774 | 149362
8 | 33:11.38 | 7:04.49 | 149363 | 181211
9 | 40:16.12 | 7:42.08 | 181212 | 215869


Track 1

Filename G:\New Rips\Charles McPherson - Siku Ya Bibi (1972) [FLAC]\01 - Don't Explain.wav

Pre-gap length 0:00:02.00

Peak level 89.0 %
Extraction speed 1.9 X
Track quality 100.0 %
Test CRC 1368C225
Copy CRC 1368C225
Track not present in AccurateRip database
Copy OK

Track 2

Filename G:\New Rips\Charles McPherson - Siku Ya Bibi (1972) [FLAC]\02 - Lover Man.wav

Pre-gap length 0:00:03.00

Peak level 85.3 %
Extraction speed 2.2 X
Track quality 100.0 %
Test CRC AD48DFF8
Copy CRC AD48DFF8
Track not present in AccurateRip database
Copy OK

Track 3

Filename G:\New Rips\Charles McPherson - Siku Ya Bibi (1972) [FLAC]\03 - God Bless The Child.wav

Pre-gap length 0:00:03.00

Peak level 85.8 %
Extraction speed 2.3 X
Track quality 100.0 %
Test CRC 5AFC8956
Copy CRC 5AFC8956
Track not present in AccurateRip database
Copy OK

Track 4

Filename G:\New Rips\Charles McPherson - Siku Ya Bibi (1972) [FLAC]\04 - Miss Brown To You.wav

Pre-gap length 0:00:03.00

Peak level 91.2 %
Extraction speed 2.5 X
Track quality 100.0 %
Test CRC 571EDECA
Copy CRC 571EDECA
Track not present in AccurateRip database
Copy OK

Track 5

Filename G:\New Rips\Charles McPherson - Siku Ya Bibi (1972) [FLAC]\05 - Good Morning Heartache.wav

Pre-gap length 0:00:03.00

Peak level 86.5 %
Extraction speed 2.7 X
Track quality 100.0 %
Test CRC E965CD49
Copy CRC E965CD49
Track not present in AccurateRip database
Copy OK

Track 6

Filename G:\New Rips\Charles McPherson - Siku Ya Bibi (1972) [FLAC]\06 - For Heaven's Sake.wav

Pre-gap length 0:00:03.00

Peak level 86.5 %
Extraction speed 2.9 X
Track quality 100.0 %
Test CRC D3EE3500
Copy CRC D3EE3500
Track not present in AccurateRip database
Copy OK

Track 7

Filename G:\New Rips\Charles McPherson - Siku Ya Bibi (1972) [FLAC]\07 - I'm A Fool To Want You.wav

Pre-gap length 0:00:03.00

Peak level 86.6 %
Extraction speed 2.4 X
Track quality 99.9 %
Test CRC E6C48830
Copy CRC E6C48830
Track not present in AccurateRip database
Copy OK

Track 8

Filename G:\New Rips\Charles McPherson - Siku Ya Bibi (1972) [FLAC]\08 - Lover Come Back To Me.wav

Pre-gap length 0:00:03.00

Peak level 89.9 %
Extraction speed 2.8 X
Track quality 99.9 %
Test CRC 0AEA6931
Copy CRC 0AEA6931
Track not present in AccurateRip database
Copy OK

Track 9

Filename G:\New Rips\Charles McPherson - Siku Ya Bibi (1972) [FLAC]\09 - My Funny Valentine.wav

Pre-gap length 0:00:03.00

Peak level 90.6 %
Extraction speed 3.6 X
Track quality 100.0 %
Test CRC 64283306
Copy CRC 64283306
Track not present in AccurateRip database
Copy OK


None of the tracks are present in the AccurateRip database

No errors occurred

End of status report

–– CUETools DB Plugin V2.1.6

[CTDB TOCID: Oy.MNqeVDgQvjoO08tw1mxX2axo-] found
Submit result: Oy.MNqeVDgQvjoO08tw1mxX2axo- has been confirmed
Track | CTDB Status
1 | (2/2) Accurately ripped
2 | (2/2) Accurately ripped
3 | (2/2) Accurately ripped
4 | (2/2) Accurately ripped
5 | (2/2) Accurately ripped
6 | (2/2) Accurately ripped
7 | (2/2) Accurately ripped
8 | (2/2) Accurately ripped
9 | (2/2) Accurately ripped


==== Log checksum 3C44CFC5665B91714356F586BC14182161B781B37625F73DB171BA36824C660F ====


Charles McPherson - Siku Ya Bibi (1972) {2017 Japan Mainstream Records Master Collection Series CDSOL-45219}

Charles McPherson - Siku Ya Bibi (1972) {2017 Japan Mainstream Records Master Collection Series CDSOL-45219}


see more Japan Mainstream Records Master Collection Series…

NEXT -> more Japan Mainstream Records Master Collection Series on the way…


===