Subcategories

Charlie Haden Quartet West - Sophisticated Ladies (2010) {Emarcy}

Posted By: ruskaval
Charlie Haden Quartet West - Sophisticated Ladies (2010) {Emarcy}

Charlie Haden Quartet West - Sophisticated Ladies (2010) {Emarcy}
EAC rip (secure mode) | FLAC+CUE+LOG -> 369 Mb | MP3 @320 -> 145 Mb
Artwork @ 300 dpi (png) -> 12 Mb
© 2010 Emarcy / UMG | 0602527508160
Jazz / Post Bop / Vocal Jazz

You can't knock the sheer class of this major-label grand production matching bassist Haden's film noir-inspired quartet – one of the best groups of the past 20 years – with guest singers Cassandra Wilson, Diana Krall, Melody Gardot, Norah Jones, Renée Fleming and Ruth Cameron (Haden's wife, who co-produces). The repertoire leaves room for instrumental chops from saxophonist Ernie Watts, while Haden's big bass fiddle thumps out the time with authority. The rest of the group's catalogue should be explored, too.
One of the finest double bassists in jazz Charlie Haden says more with a few finely chosen notes than many lesser musicians try and say with a hundred. His warm bass tone is the core element of his stunning Quartet West whose smoky, atmospheric approach to jazz has won them critical acclaim for over twenty years with pianist Alan Broadbent casting a harmonic spell from which phenomenal saxophonist Ernie Watts can take flight, while Laurence Marable’s subtle drumming is perfectly in synch with Haden’s hypnotic bass work.

Returning with a new album Sophisticated Ladies, that’s inspired by and dedicated to their mutual love of the some of jazz’s most celebrated female singers, French jazz expert Jean-Phillipe Allard writes about this spellbinding new project from one of jazz’s most consistent and compelling artists: read more…
tracklist:
01. If I'm Lucky 5:41 Vocals — Melody Gardot
02. Sophisticated Lady 4:28
03. All Wind 4:25 Vocals — Norah Jones
04. Today I Am A Man 5:23
05. My Love And I 4:14 Vocals — Cassandra Wilson
06. Theme From "Markham" 4:40
07 Let's Call It A Day 5:52 Vocals — Ruth Cameron
8. Angel Face 4:08
9. A Love Like This 5:13 Vocals — Renee Fleming
10. My Old Flame 5:35
11. Goodbye 5:48 Vocals — Diana Krall
12. Wahoo 4:52

Charlie Haden Quartet West - Sophisticated Ladies (2010) {Emarcy}

Charlie Haden Quartet West - Sophisticated Ladies (2010) {Emarcy}

Exact Audio Copy V0.99 prebeta 5 from 4. May 2009

EAC extraction logfile from 20. November 2010, 19:40

Charlie Haden Quartet West / Sophisticated Ladies

Used drive : TSSTcorpCD/DVDW TS-H552L Adapter: 3 ID: 0

Read mode : Secure
Utilize accurate stream : Yes
Defeat audio cache : Yes
Make use of C2 pointers : No

Read offset correction : 6
Overread into Lead-In and Lead-Out : No
Fill up missing offset samples with silence : Yes
Delete leading and trailing silent blocks : No
Null samples used in CRC calculations : Yes
Used interface : Native Win32 interface for Win NT & 2000
Gap handling : Appended to previous track

Used output format : User Defined Encoder
Selected bitrate : 1024 kBit/s
Quality : High
Add ID3 tag : No
Command line compressor : C:\Program Files\FLAC\flac.exe
Additional command line options : -6 -V -T "ARTIST=%a" -T "TITLE=%t" -T "ALBUM=%g" -T "DATE=%y" -T "TRACKNUMBER=%n" -T "GENRE=%m" -T "COMMENT=EAC FLAC -6" %s


TOC of the extracted CD

Track | Start | Length | Start sector | End sector
––––––––––––––––––––––––––––-
1 | 0:00.00 | 5:39.73 | 0 | 25497
2 | 5:39.73 | 4:28.62 | 25498 | 45659
3 | 10:08.60 | 4:25.03 | 45660 | 65537
4 | 14:33.63 | 5:23.11 | 65538 | 89773
5 | 19:56.74 | 4:14.36 | 89774 | 108859
6 | 24:11.35 | 4:40.16 | 108860 | 129875
7 | 28:51.51 | 5:52.12 | 129876 | 156287
8 | 34:43.63 | 4:08.53 | 156288 | 174940
9 | 38:52.41 | 5:13.18 | 174941 | 198433
10 | 44:05.59 | 5:35.04 | 198434 | 223562
11 | 49:40.63 | 5:48.72 | 223563 | 249734
12 | 55:29.60 | 4:52.44 | 249735 | 271678


Track 1

Filename E:\EAC\Charlie Haden Quartet West - Sophisticated Ladies (2010) {Emarcy}\01 - If I'm Lucky.wav

Pre-gap length 0:00:02.00

Peak level 100.0 %
Track quality 100.0 %
Test CRC 81FE9B28
Copy CRC 81FE9B28
Track not present in AccurateRip database
Copy OK

Track 2

Filename E:\EAC\Charlie Haden Quartet West - Sophisticated Ladies (2010) {Emarcy}\02 - Sophisticated Lady.wav

Peak level 86.2 %
Track quality 100.0 %
Test CRC A21884FF
Copy CRC A21884FF
Track not present in AccurateRip database
Copy OK

Track 3

Filename E:\EAC\Charlie Haden Quartet West - Sophisticated Ladies (2010) {Emarcy}\03 - Ill Wind.wav

Peak level 99.9 %
Track quality 100.0 %
Test CRC 64225609
Copy CRC 64225609
Track not present in AccurateRip database
Copy OK

Track 4

Filename E:\EAC\Charlie Haden Quartet West - Sophisticated Ladies (2010) {Emarcy}\04 - Today I Am A Man.wav

Peak level 100.0 %
Track quality 100.0 %
Test CRC CED811E3
Copy CRC CED811E3
Track not present in AccurateRip database
Copy OK

Track 5

Filename E:\EAC\Charlie Haden Quartet West - Sophisticated Ladies (2010) {Emarcy}\05 - My Love And I.wav

Peak level 92.8 %
Track quality 100.0 %
Test CRC 0C2CEE7C
Copy CRC 0C2CEE7C
Track not present in AccurateRip database
Copy OK

Track 6

Filename E:\EAC\Charlie Haden Quartet West - Sophisticated Ladies (2010) {Emarcy}\06 - Theme From 'Markham'.wav

Peak level 94.7 %
Track quality 100.0 %
Test CRC 95DE4F73
Copy CRC 95DE4F73
Track not present in AccurateRip database
Copy OK

Track 7

Filename E:\EAC\Charlie Haden Quartet West - Sophisticated Ladies (2010) {Emarcy}\07 - Let's Call It A Day.wav

Peak level 100.0 %
Track quality 100.0 %
Test CRC F44CEF4D
Copy CRC F44CEF4D
Track not present in AccurateRip database
Copy OK

Track 8

Filename E:\EAC\Charlie Haden Quartet West - Sophisticated Ladies (2010) {Emarcy}\08 - Angel Face.wav

Peak level 100.0 %
Track quality 99.9 %
Test CRC 5C55E0E4
Copy CRC 5C55E0E4
Track not present in AccurateRip database
Copy OK

Track 9

Filename E:\EAC\Charlie Haden Quartet West - Sophisticated Ladies (2010) {Emarcy}\09 - A Love Like This.wav

Peak level 100.0 %
Track quality 100.0 %
Test CRC 3B476928
Copy CRC 3B476928
Track not present in AccurateRip database
Copy OK

Track 10

Filename E:\EAC\Charlie Haden Quartet West - Sophisticated Ladies (2010) {Emarcy}\10 - My Old Flame.wav

Peak level 100.0 %
Track quality 99.9 %
Test CRC 0801B709
Copy CRC 0801B709
Track not present in AccurateRip database
Copy OK

Track 11

Filename E:\EAC\Charlie Haden Quartet West - Sophisticated Ladies (2010) {Emarcy}\11 - Goodbye.wav

Peak level 99.6 %
Track quality 100.0 %
Test CRC ECB1CBEE
Copy CRC ECB1CBEE
Track not present in AccurateRip database
Copy OK

Track 12

Filename E:\EAC\Charlie Haden Quartet West - Sophisticated Ladies (2010) {Emarcy}\12 - Wahoo.wav

Peak level 100.0 %
Track quality 99.9 %
Test CRC 65C61695
Copy CRC 65C61695
Track not present in AccurateRip database
Copy OK


None of the tracks are present in the AccurateRip database

No errors occurred

End of status report

HF Linkz

or

FSonic Linkz

p.s. the files are NON interchangeable…

No Mirror, plz!