Subcategories

Charlie Parker - In A Soulful Mood (2007)

Posted By: Bezz
Charlie Parker - In A Soulful Mood (2007)

Charlie Parker - In A Soulful Mood (2007)
EAC rip | APE + CUE + LOG | Scans | 720 Mb (Incl. Recovery)
Genre ~ Bop, Big Band | Label ~ Demon Music Group

As if the world needs another compilation of the essential bebop originals Charlie Parker offered to the world in the '40s, here's yet another. Studio tracks that are well known as prime cuts from Bird's repertoire are all here over two CDs and 50 selections. No commentary is needed on the quality of this music, save that the digital reproductions to CD are clean and strong. It is conceivable in this day and age that listeners don't have Charlie Parker recordings, much less know about how he changed the music world in his time. You should have more than one, but this is a mere starter to whet your bop whistle. ~ AllMusic

Tracklist

Disc 1

1.Swingmatism
2.Groovin' High
3.Billie's Bounce
4.Warming Up A Riff
5.Now's The Time
6.Thriving On A Riff
7.Ko-Ko
8.Moose The Mooche
9.Yardbird Suite
10.Ornithology
11.A Night In Tunisia
12.Lover Man
13.Bebop
14.Cool Blues
15.Relaxin` At Camarillo
16.Donna Lee
17.Chasin' The Bird
18.Bird Of Paradise
19.Embraceable You
20.Scrapple From The Apple
21.My Old Flame
22.Out Of Nowhere
23.Don't Blame Me
24.Drifting On A Reed
25.Quasimodo


Disc 2

1.Charlie's Wig
2.Crazeology
3.Klaunstance
4.Bird Gets The Worm
5.Barbados
6.Constellation
7.Steeplechase
8.Merry-Go-Round
9.Mango Mangue
10.Segment
11.Passport
12.Just Friends
13.Summertime
14.Blues (Fast)
15.Easy To Love
16.She Rote
17.Star Eyes
18.My Little Suede Shoes
19.Tico-Tico
20.Blues For Alice
21.Back Home Blues
22.Lover
23.Laird Baird
24.Cosmic Rays
25.I Remember You

Exact Audio Copy V0.99 prebeta 4 from 23. January 2008

Отчёт EAC об извлечении, выполненном 22. июня 2009, 23:00

Charlie Parker / In A Soulful Mood

Дисковод: ASUS CRW-4824A Adapter: 0 ID: 0

Режим чтения : Достоверность
Использование точного потока : Да
Отключение кэша аудио : Да
Использование указателей C2 : Нет

Коррекция смещения при чтении : 6
Способность читать области Lead-in и Lead-out : Нет
Заполнение пропущенных сэмплов тишиной : Да
Удаление блоков с тишиной в начале и конце : Нет
При вычислениях CRC использовались нулевые сэмплы : Да
Интерфейс : Установленный внешний ASPI-интерфейс

Выходной формат : Внутренние WAV-операции
Формат сэмплов : 44.100 Гц; 16 бит; стерео


TOC извлечённого CD

Трек | Старт | Длительность | Начальный сектор | Конечный сектор
––––––––––––––––––––––––––––––––––-
1 | 0:00.00 | 2:41.23 | 0 | 12097
2 | 2:41.23 | 2:39.30 | 12098 | 24052
3 | 5:20.53 | 3:11.72 | 24053 | 38449
4 | 8:32.50 | 2:35.43 | 38450 | 50117
5 | 11:08.18 | 3:17.58 | 50118 | 64950
6 | 14:26.01 | 2:56.58 | 64951 | 78208
7 | 17:22.59 | 2:56.20 | 78209 | 91428
8 | 20:19.04 | 3:03.44 | 91429 | 105197
9 | 23:22.48 | 2:55.42 | 105198 | 118364
10 | 26:18.15 | 3:00.37 | 118365 | 131901
11 | 29:18.52 | 3:04.15 | 131902 | 145716
12 | 32:22.67 | 3:21.16 | 145717 | 160807
13 | 35:44.08 | 2:55.08 | 160808 | 173940
14 | 38:39.16 | 3:08.43 | 173941 | 188083
15 | 41:47.59 | 3:02.64 | 188084 | 201797
16 | 44:50.48 | 2:35.24 | 201798 | 213446
17 | 47:25.72 | 2:47.64 | 213447 | 226035
18 | 50:13.61 | 3:12.26 | 226036 | 240461
19 | 53:26.12 | 3:22.38 | 240462 | 255649
20 | 56:48.50 | 3:00.29 | 255650 | 269178
21 | 59:49.04 | 3:14.60 | 269179 | 283788
22 | 63:03.64 | 4:06.11 | 283789 | 302249
23 | 67:10.00 | 2:48.62 | 302250 | 314911
24 | 69:58.62 | 2:57.50 | 314912 | 328236
25 | 72:56.37 | 2:53.13 | 328237 | 341224


Характеристики диапазона извлечения и сообщения об ошибках

Выбранный диапазон

Имя файла D:\Торрент\Charlie Parker 2\1\Charlie Parker - In A Soulful Mood.wav

Пиковый уровень 99.9 %
Качество диапазона 100.0 %
CRC теста 866EC89E
CRC копии 866EC89E
Копирование… OK

Ошибок не произошло

Конец отчёта


–––––––––––––––––––––––––––


Exact Audio Copy V0.99 prebeta 4 from 23. January 2008

Отчёт EAC об извлечении, выполненном 22. июня 2009, 23:21

Charlie Parker / In A Soulful Mood CD2

Дисковод: ASUS CRW-4824A Adapter: 0 ID: 0

Режим чтения : Достоверность
Использование точного потока : Да
Отключение кэша аудио : Да
Использование указателей C2 : Нет

Коррекция смещения при чтении : 6
Способность читать области Lead-in и Lead-out : Нет
Заполнение пропущенных сэмплов тишиной : Да
Удаление блоков с тишиной в начале и конце : Нет
При вычислениях CRC использовались нулевые сэмплы : Да
Интерфейс : Установленный внешний ASPI-интерфейс

Выходной формат : Внутренние WAV-операции
Формат сэмплов : 44.100 Гц; 16 бит; стерео


TOC извлечённого CD

Трек | Старт | Длительность | Начальный сектор | Конечный сектор
––––––––––––––––––––––––––––––––––-
1 | 0:00.00 | 2:38.59 | 0 | 11908
2 | 2:38.59 | 2:59.62 | 11909 | 25395
3 | 5:38.46 | 2:47.17 | 25396 | 37937
4 | 8:25.63 | 2:36.40 | 37938 | 49677
5 | 11:02.28 | 2:30.64 | 49678 | 60991
6 | 13:33.17 | 2:29.70 | 60992 | 72236
7 | 16:03.12 | 3:05.04 | 72237 | 86115
8 | 19:08.16 | 2:27.52 | 86116 | 97192
9 | 21:35.68 | 2:55.64 | 97193 | 110381
10 | 24:31.57 | 3:20.69 | 110382 | 125450
11 | 27:52.51 | 3:01.32 | 125451 | 139057
12 | 30:54.08 | 3:31.55 | 139058 | 154937
13 | 34:25.63 | 2:47.56 | 154938 | 167518
14 | 37:13.44 | 2:47.12 | 167519 | 180055
15 | 40:00.56 | 3:31.24 | 180056 | 195904
16 | 43:32.05 | 3:08.38 | 195905 | 210042
17 | 46:40.43 | 3:34.17 | 210043 | 226109
18 | 50:14.60 | 3:05.30 | 226110 | 240014
19 | 53:20.15 | 2:45.23 | 240015 | 252412
20 | 56:05.38 | 2:48.28 | 252413 | 265040
21 | 58:53.66 | 2:48.36 | 265041 | 277676
22 | 61:42.27 | 3:09.13 | 277677 | 291864
23 | 64:51.40 | 2:42.20 | 291865 | 304034
24 | 67:33.60 | 3:00.13 | 304035 | 317547
25 | 70:33.73 | 2:56.64 | 317548 | 330811


Характеристики диапазона извлечения и сообщения об ошибках

Выбранный диапазон

Имя файла D:\Торрент\Charlie Parker 2\2\Charlie Parker - In A Soulful Mood CD2.wav

Пиковый уровень 99.9 %
Качество диапазона 99.9 %
CRC теста 519EA680
CRC копии 519EA680
Копирование… OK

Ошибок не произошло

Конец отчёта

Charlie Parker - In A Soulful Mood (2007)

Charlie Parker - In A Soulful Mood (2007)

Charlie Parker - In A Soulful Mood (2007)

Special thanks to the original ripper!

Welcome to my blog for more wonderful music

PLEASE DO NOT PROVIDE MIRROR LINKS!