Subcategories

Charlie Parker - Bird's Eyes: Last Unissued, Vol. 12 (1949-1950) {Philology W 842.2 rel 1999}

Posted By: ruskaval
Charlie Parker - Bird's Eyes: Last Unissued, Vol. 12 (1949-1950) {Philology W 842.2 rel 1999}

Charlie Parker - Bird's Eyes: Last Unissued, Vol. 12 (1949-1950) {Philology W 842.2 rel 1999}
EAC rip (secure mode) | FLAC (tracks)+CUE+LOG -> 353 Mb | MP3 @320 -> 171 Mb
Full Artwork @ 300 dpi (jpg) -> 21 Mb | 5% repair rar
© 1949-1950, 1999 Philology | W 842.2
Jazz / Bop / Bebop / Saxophone

Charlie Parker was a legendary Grammy Award–winning jazz saxophonist who, with Dizzy Gillespie, invented the musical style called bop or bebop. Charlie Parker was born on August 29, 1920, in Kansas City, Kansas. From 1935 to 1939, he played the Missouri nightclub scene with local jazz and blues bands. In 1945 he led his own group while performing with Dizzy Gillespie on the side. Together they invented bebop. In 1949, Parker made his European debut, giving his last performance several years later. He died a week later on March 12, 1955, in New York City.

More INFO & personnel

tracklist:
01 - Farwell Blues
02 - Lady Bird
03 - Billie's Bounce
04 - Cool Blues
05 - April In Paris
06 - Ornithology , 52nd Street Theme
07 - Caravan
08 - Big Foot
09 - Little Willie Leaps
10 - All The Things You Are
11 - Bernie's Tune
12 - Donna Lee
13 - Ad Lib , Out Of Nowhere
14 - Half Nelson
15 - Fina And Dandy
16 - Half Nelson
17 - Cherokee
18 - Scrapple From The Apple
19 - Star Eyes

EAC extraction logfile from 5. May 2011, 18:07 for CD
Charlie Parker / Bird's Eyes - Vol. 12

Used drive : HP DVD Writer 1170d Adapter: 1 ID: 2
Read mode : Secure with NO C2, accurate stream, disable cache
Read offset correction : 6
Overread into Lead-In and Lead-Out : No

Used output format : C:\Program Files\FLAC\flac.exe (User Defined Encoder)
128 kBit/s
Additional command line options : -8 -V -T "ARTIST=%a" -T "TITLE=%t" -T "ALBUM=%g" -T "DATE=%y" -T "TRACKNUMBER=%n" -T "TOTALTRACKS=%x" -T "GENRE=%m" -T "ALBUM ARTIST=%v" -T "ALBUMARTIST=%v" -T "COMMENT=EAC V0.99 prebeta 4, Secure Mode,

Other options :
Fill up missing offset samples with silence : Yes
Delete leading and trailing silent blocks : No
Installed external ASPI interface


Track 1
Filename C:\Documents and Settings\birdseyes12\01 - Farwell Blues.wav

Pre-gap length 0:00:02.44

Peak level 60.2 %
Track quality 100.0 %
Test CRC 8DFE99D6
Copy CRC 8DFE99D6
Copy OK

Track 2
Filename C:\Documents and Settings\birdseyes12\02 - Lady Bird.wav

Peak level 64.6 %
Track quality 99.9 %
Test CRC 0204BF4A
Copy CRC 0204BF4A
Copy OK

Track 3
Filename C:\Documents and Settings\birdseyes12\03 - Billie's Bounce.wav

Peak level 98.8 %
Track quality 100.0 %
Test CRC 56F1C98D
Copy CRC 56F1C98D
Copy OK

Track 4
Filename C:\Documents and Settings\birdseyes12\04 - Cool Blues.wav

Peak level 94.0 %
Track quality 100.0 %
Test CRC F3BFB699
Copy CRC F3BFB699
Copy OK

Track 5
Filename C:\Documents and Settings\birdseyes12\05 - April In Paris.wav

Peak level 85.0 %
Track quality 100.0 %
Test CRC 8EA0F67F
Copy CRC 8EA0F67F
Copy OK

Track 6
Filename C:\Documents and Settings\birdseyes12\06 - Ornithology , 52nd Street Theme.wav

Peak level 88.5 %
Track quality 100.0 %
Test CRC 6DC4D834
Copy CRC 6DC4D834
Copy OK

Track 7
Filename C:\Documents and Settings\birdseyes12\07 - Caravan.wav

Peak level 60.2 %
Track quality 100.0 %
Test CRC 989315DE
Copy CRC 989315DE
Copy OK

Track 8
Filename C:\Documents and Settings\birdseyes12\08 - Big Foot.wav

Peak level 69.3 %
Track quality 100.0 %
Test CRC D8EB2D6A
Copy CRC D8EB2D6A
Copy OK

Track 9
Filename C:\Documents and Settings\birdseyes12\09 - Little Willie Leaps.wav

Peak level 96.6 %
Track quality 100.0 %
Test CRC E21BEB0D
Copy CRC E21BEB0D
Copy OK

Track 10
Filename C:\Documents and Settings\birdseyes12\10 - All The Things You Are.wav

Peak level 89.7 %
Track quality 100.0 %
Test CRC 35A13D78
Copy CRC 35A13D78
Copy OK

Track 11
Filename C:\Documents and Settings\birdseyes12\11 - Bernie's Tune.wav

Peak level 91.6 %
Track quality 100.0 %
Test CRC D0E74EA1
Copy CRC D0E74EA1
Copy OK

Track 12
Filename C:\Documents and Settings\birdseyes12\12 - Donna Lee.wav

Peak level 89.4 %
Track quality 100.0 %
Test CRC F392C279
Copy CRC F392C279
Copy OK

Track 13
Filename C:\Documents and Settings\birdseyes12\13 - Ad Lib , Out Of Nowhere.wav

Peak level 75.0 %
Track quality 100.0 %
Test CRC 98F89AE3
Copy CRC 98F89AE3
Copy OK

Track 14
Filename C:\Documents and Settings\birdseyes12\14 - Half Nelson.wav

Peak level 87.2 %
Track quality 100.0 %
Test CRC 0DFF8321
Copy CRC 0DFF8321
Copy OK

Track 15
Filename C:\Documents and Settings\birdseyes12\15 - Fina And Dandy.wav

Peak level 100.0 %
Track quality 100.0 %
Test CRC B0527769
Copy CRC B0527769
Copy OK

Track 16
Filename C:\Documents and Settings\birdseyes12\16 - Half Nelson.wav

Peak level 65.9 %
Track quality 100.0 %
Test CRC 694C6AE4
Copy CRC 694C6AE4
Copy OK

Track 17
Filename C:\Documents and Settings\birdseyes12\17 - Cherokee.wav

Peak level 63.2 %
Track quality 99.9 %
Test CRC 3F8D2B68
Copy CRC 3F8D2B68
Copy OK

Track 18
Filename C:\Documents and Settings\birdseyes12\18 - Scrapple From The Apple.wav

Peak level 62.2 %
Track quality 100.0 %
Test CRC 724A20C8
Copy CRC 724A20C8
Copy OK

Track 19
Filename C:\Documents and Settings\birdseyes12\19 - Star Eyes.wav

Peak level 63.1 %
Track quality 100.0 %
Test CRC 3CACC8F4
Copy CRC 3CACC8F4
Copy OK

No errors occured


End of status report


Charlie Parker - Bird's Eyes: Last Unissued, Vol. 12 (1949-1950) {Philology W 842.2 rel 1999}

Charlie Parker - Bird's Eyes: Last Unissued, Vol. 12 (1949-1950) {Philology W 842.2 rel 1999}




NEXT -> more Charlie Parker on the way…


===