Subcategories

Charlie Parker - Bird's Eyes: Last Unissued, Vol. 13 (1948, 1956) {Philology W 843.2 rel 1999}

Posted By: ruskaval
Charlie Parker - Bird's Eyes: Last Unissued, Vol. 13 (1948, 1956) {Philology W 843.2 rel 1999}

Charlie Parker - Bird's Eyes: Last Unissued, Vol. 13 (1948, 1956) {Philology W 843.2 rel 1999}
EAC rip (secure mode) | FLAC (tracks)+CUE+LOG -> 301 Mb | MP3 @320 -> 158 Mb
Full Artwork @ 300 dpi (jpg) -> 17 Mb | 5% repair rar
© 1948, 1956, 1999 Philology | W 843.2
Jazz / Bop / Bebop / Big Band / Saxophone

Charlie Parker was a legendary Grammy Award–winning jazz saxophonist who, with Dizzy Gillespie, invented the musical style called bop or bebop. Charlie Parker was born on August 29, 1920, in Kansas City, Kansas. From 1935 to 1939, he played the Missouri nightclub scene with local jazz and blues bands. In 1945 he led his own group while performing with Dizzy Gillespie on the side. Together they invented bebop. In 1949, Parker made his European debut, giving his last performance several years later. He died a week later on March 12, 1955, in New York City.

More INFO & personnel

tracklist:
01 - Yesterdays
02 - Round Midnight
03 - Algo Bueno
04 - Manteca
05 - Oll-Ya-Koo
06 - Lover Man
07 - Good Bait (1)
08 - Good Bait (2)
09 - Unknown Ballad
10 - All The Things You are
11 - Unknown Blues
12 - Groovin' High
13 - Ool-Ya-Koo
14 - I Can't Get Started
15 - Don't Blame Me
16 - Cool Breeze
17 - Things To Come
18 - Oo-Bop-Sh'Bam
19 - Night In Tunisia
20 - What Is This Thing Called Love
21 - I'll Remember April
22 - Indian Summer
23 - The Theme
24 - Long Ago And Far away
25 - Night In Tunisia
26 - Broadway

EAC extraction logfile from 22. April 2011, 18:04 for CD
Charlie Parker / Bird's Eyes - Vol. 13

Used drive : HP DVD Writer 1170d Adapter: 1 ID: 1
Read mode : Secure with NO C2, accurate stream, disable cache
Read offset correction : 6
Overread into Lead-In and Lead-Out : No

Used output format : C:\Program Files\FLAC\flac.exe (User Defined Encoder)
128 kBit/s
Additional command line options : -8 -V -T "ARTIST=%a" -T "TITLE=%t" -T "ALBUM=%g" -T "DATE=%y" -T "TRACKNUMBER=%n" -T "TOTALTRACKS=%x" -T "GENRE=%m" -T "ALBUM ARTIST=%v" -T "ALBUMARTIST=%v" -T "COMMENT=EAC V0.99 prebeta 4, Secure Mode,

Other options :
Fill up missing offset samples with silence : Yes
Delete leading and trailing silent blocks : No
Installed external ASPI interface


Track 1
Filename C:\Documents and Settings\birdseyes13\01 - Yesterdays.wav

Pre-gap length 0:00:02.44

Peak level 100.0 %
Track quality 100.0 %
Test CRC 8C0621A9
Copy CRC 8C0621A9
Copy OK

Track 2
Filename C:\Documents and Settings\birdseyes13\02 - Round Midnight.wav

Peak level 80.9 %
Track quality 100.0 %
Test CRC 67348DF5
Copy CRC 67348DF5
Copy OK

Track 3
Filename C:\Documents and Settings\birdseyes13\03 - Algo Bueno.wav

Peak level 75.9 %
Track quality 100.0 %
Test CRC C760A02D
Copy CRC C760A02D
Copy OK

Track 4
Filename C:\Documents and Settings\birdseyes13\04 - Manteca.wav

Peak level 88.6 %
Track quality 100.0 %
Test CRC BD33909A
Copy CRC BD33909A
Copy OK

Track 5
Filename C:\Documents and Settings\birdseyes13\05 - Oll-Ya-Koo.wav

Peak level 80.2 %
Track quality 99.7 %
Test CRC 806F087F
Copy CRC 806F087F
Copy OK

Track 6
Filename C:\Documents and Settings\birdseyes13\06 - Lover Man.wav

Peak level 86.5 %
Track quality 100.0 %
Test CRC 9A9A50CB
Copy CRC 9A9A50CB
Copy OK

Track 7
Filename C:\Documents and Settings\birdseyes13\07 - Good Bait (1).wav

Peak level 84.9 %
Track quality 100.0 %
Test CRC CAAC3232
Copy CRC CAAC3232
Copy OK

Track 8
Filename C:\Documents and Settings\birdseyes13\08 - Good Bait (2).wav

Peak level 80.1 %
Track quality 100.0 %
Test CRC 5D29A166
Copy CRC 5D29A166
Copy OK

Track 9
Filename C:\Documents and Settings\birdseyes13\09 - Unknown Ballad.wav

Peak level 53.8 %
Track quality 100.0 %
Test CRC EE939BC7
Copy CRC EE939BC7
Copy OK

Track 10
Filename C:\Documents and Settings\birdseyes13\10 - All The Things You are.wav

Peak level 63.4 %
Track quality 100.0 %
Test CRC 349755E2
Copy CRC 349755E2
Copy OK

Track 11
Filename C:\Documents and Settings\birdseyes13\11 - Unknown Blues.wav

Peak level 90.6 %
Track quality 100.0 %
Test CRC 178DAD09
Copy CRC 178DAD09
Copy OK

Track 12
Filename C:\Documents and Settings\birdseyes13\12 - Groovin' High.wav

Peak level 94.7 %
Track quality 100.0 %
Test CRC C4D285C7
Copy CRC C4D285C7
Copy OK

Track 13
Filename C:\Documents and Settings\birdseyes13\13 - Ool-Ya-Koo.wav

Peak level 100.0 %
Track quality 100.0 %
Test CRC 1DA5F71F
Copy CRC 1DA5F71F
Copy OK

Track 14
Filename C:\Documents and Settings\birdseyes13\14 - I Can't Get Started.wav

Peak level 66.8 %
Track quality 99.9 %
Test CRC 788B0574
Copy CRC 788B0574
Copy OK

Track 15
Filename C:\Documents and Settings\birdseyes13\15 - Don't Blame Me.wav

Peak level 100.0 %
Track quality 100.0 %
Test CRC 973D737F
Copy CRC 973D737F
Copy OK

Track 16
Filename C:\Documents and Settings\birdseyes13\16 - Cool Breeze.wav

Peak level 91.4 %
Track quality 100.0 %
Test CRC A83374B4
Copy CRC A83374B4
Copy OK

Track 17
Filename C:\Documents and Settings\birdseyes13\17 - Things To Come.wav

Peak level 97.5 %
Track quality 100.0 %
Test CRC 981BAEF9
Copy CRC 981BAEF9
Copy OK

Track 18
Filename C:\Documents and Settings\birdseyes13\18 - Oo-Bop-Sh'Bam.wav

Peak level 95.9 %
Track quality 100.0 %
Test CRC 9066FFC1
Copy CRC 9066FFC1
Copy OK

Track 19
Filename C:\Documents and Settings\birdseyes13\19 - Night In Tunisia.wav

Peak level 100.0 %
Track quality 100.0 %
Test CRC E546BAD9
Copy CRC E546BAD9
Copy OK

Track 20
Filename C:\Documents and Settings\birdseyes13\20 - What Is This Thing Called Love.wav

Peak level 88.9 %
Track quality 100.0 %
Test CRC 12063FDE
Copy CRC 12063FDE
Copy OK

Track 21
Filename C:\Documents and Settings\birdseyes13\21 - I'll Remember April.wav

Peak level 100.0 %
Track quality 99.9 %
Test CRC B491FB55
Copy CRC B491FB55
Copy OK

Track 22
Filename C:\Documents and Settings\birdseyes13\22 - Indian Summer.wav

Peak level 100.0 %
Track quality 100.0 %
Test CRC 2CDFF90D
Copy CRC 2CDFF90D
Copy OK

Track 23
Filename C:\Documents and Settings\birdseyes13\23 - The Theme.wav

Peak level 97.1 %
Track quality 99.9 %
Test CRC 419DBC96
Copy CRC 419DBC96
Copy OK

Track 24
Filename C:\Documents and Settings\birdseyes13\24 - Long Ago And Far away.wav

Peak level 90.4 %
Track quality 100.0 %
Test CRC 50B6698E
Copy CRC 50B6698E
Copy OK

Track 25
Filename C:\Documents and Settings\birdseyes13\25 - Night In Tunisia.wav

Peak level 87.3 %
Track quality 99.9 %
Test CRC 65E05A4C
Copy CRC 65E05A4C
Copy OK

Track 26
Filename C:\Documents and Settings\birdseyes13\26 - Broadway.wav

Peak level 75.2 %
Track quality 100.0 %
Test CRC C47D211B
Copy CRC C47D211B
Copy OK

No errors occured


End of status report


Charlie Parker - Bird's Eyes: Last 			  		  		  	 			   		  	   		  		  		 	    	 			   		  	   		 	    		 	 	  	 			   		   	  		  	   		   				 Unissued, Vol. 13 (1948, 1956) {Philology W 843.2 rel 1999}

Charlie Parker - Bird's Eyes: Last Unissued, Vol. 13 (1948, 1956) {Philology W 843.2 rel 1999}




NEXT -> more Charlie Parker on the way…


===