Subcategories

Cheap Trick - Authorized Greatest Hits (2000)

Posted By: muddboogers
Cheap Trick - Authorized Greatest Hits (2000)

Cheap Trick - Authorized Greatest Hits (2000)
EAC | FLAC IMG+CUE+LOG | Scans | RAR 3% Recovery | 550 MB
Hard Rock / Pop Rock / Power Pop | 2000 Epic Records, Legacy Recordings #EK 66015

This is an "authorized" greatest hits collection in the sense that the band picked the selections themselves. It's preferable to the 1991 Greatest Hits comp for its slightly greater length (16 songs) and better choice of material; the single version of "Southern Girls" makes it on this time around, for instance. Still, like that other album with "Greatest Hits" in the title, it misses a number of rockers that fans might rate among their best work. The only previously unreleased item is a live 1988 performance of "The Flame"; a live version of "I Can't Take It" and their rendition of "That 70's Song (In the Street)," the latter famed for its use as a television theme, are the only tracks recorded after 1990. ~ Richie Unterberger, allmusic.com
Tracklist:
1. I Want You To Want Me
2. Ain't That A Shame
3. Southern Girls (Single Version)
4. Surrender
5. Stop This Game
6. Dream Police
7. If You Want My Love (Alternate Version)
8. Tonight It's You
9. Everything Works If You Let It (Full Length Version)
10. Mandocello
11. I Can't Take It (Live)
12. She's Tight
13. That 70's Song (Based On "In The Street")
14. Walk Away (Featuring Chrissie Hynde)
15. Can't Stop Fallin' Into Love
16. The Flame (Live)

Exact Audio Copy V1.0 beta 3 from 29. August 2011

EAC extraction logfile from 24. December 2011, 17:34

Cheap Trick / Authorized Greatest Hits

Used drive : TDK CDRW4800B Adapter: 2 ID: 1

Read mode : Secure
Utilize accurate stream : Yes
Defeat audio cache : Yes
Make use of C2 pointers : No

Read offset correction : 6
Overread into Lead-In and Lead-Out : No
Fill up missing offset samples with silence : Yes
Delete leading and trailing silent blocks : No
Null samples used in CRC calculations : Yes
Used interface : Native Win32 interface for Win NT & 2000

Used output format : Internal WAV Routines
Sample format : 44.100 Hz; 16 Bit; Stereo


TOC of the extracted CD

Track | Start | Length | Start sector | End sector
––––––––––––––––––––––––––––-
1 | 0:00.00 | 3:44.45 | 0 | 16844
2 | 3:44.45 | 5:16.62 | 16845 | 40606
3 | 9:01.32 | 3:35.20 | 40607 | 56751
4 | 12:36.52 | 4:14.00 | 56752 | 75801
5 | 16:50.52 | 3:57.03 | 75802 | 93579
6 | 20:47.55 | 3:53.50 | 93580 | 111104
7 | 24:41.30 | 4:26.12 | 111105 | 131066
8 | 29:07.42 | 4:47.35 | 131067 | 152626
9 | 33:55.02 | 3:56.13 | 152627 | 170339
10 | 37:51.15 | 4:47.02 | 170340 | 191866
11 | 42:38.17 | 3:33.43 | 191867 | 207884
12 | 46:11.60 | 2:58.52 | 207885 | 221286
13 | 49:10.37 | 2:50.55 | 221287 | 234091
14 | 52:01.17 | 3:41.25 | 234092 | 250691
15 | 55:42.42 | 3:49.35 | 250692 | 267901
16 | 59:32.02 | 6:48.45 | 267902 | 298546


Range status and errors

Selected range

Filename E:\[# AvaxHome ~ muddboogers #]\Cheap Trick - Authorized Greatest Hits.wav

Peak level 100.0 %
Extraction speed 8.7 X
Range quality 100.0 %
Test CRC D8B67628
Copy CRC D8B67628
Copy OK

No errors occurred


AccurateRip summary

Track 1 accurately ripped (confidence 9) [5C0231C0] (AR v1)
Track 2 accurately ripped (confidence 9) [FE58B0F1] (AR v1)
Track 3 accurately ripped (confidence 9) [44C421CA] (AR v1)
Track 4 accurately ripped (confidence 9) [B8B24625] (AR v1)
Track 5 accurately ripped (confidence 9) [C1B92524] (AR v1)
Track 6 accurately ripped (confidence 9) [B15E5412] (AR v1)
Track 7 accurately ripped (confidence 9) [C4C1DFA3] (AR v1)
Track 8 accurately ripped (confidence 9) [F1F00222] (AR v1)
Track 9 accurately ripped (confidence 9) [8775B862] (AR v1)
Track 10 accurately ripped (confidence 9) [5550A5DE] (AR v1)
Track 11 accurately ripped (confidence 8) [C36D9B52] (AR v1)
Track 12 accurately ripped (confidence 8) [CCFC62C5] (AR v1)
Track 13 accurately ripped (confidence 8) [BBE9487C] (AR v1)
Track 14 accurately ripped (confidence 8) [DD20171E] (AR v1)
Track 15 accurately ripped (confidence 8) [3F3FF3A2] (AR v1)
Track 16 accurately ripped (confidence 7) [DDAACFCD] (AR v1)

All tracks accurately ripped

End of status report

==== Log checksum 461EEC5760B9537B4845AA808BC8BA028C10DFC93FD49FCBE0CCD18209E4A408 ====

[CUETools log; Date: 12/24/2011 5:40:23 PM; Version: 2.1.2a]
[CTDB TOCID: fSpHpTNjPqZPte.zrmT_5IBqaY0-] found.
[ CTDBID ] Status
[398416f6] (58/58) Accurately ripped
[AccurateRip ID: 002677a5-01cb67db-db0f8c10] found.
Track [ CRC ] Status
01 [5c0231c0] (09/63) Accurately ripped
02 [fe58b0f1] (09/64) Accurately ripped
03 [44c421ca] (09/64) Accurately ripped
04 [b8b24625] (09/66) Accurately ripped
05 [c1b92524] (09/65) Accurately ripped
06 [b15e5412] (09/65) Accurately ripped
07 [c4c1dfa3] (09/65) Accurately ripped
08 [f1f00222] (09/65) Accurately ripped
09 [8775b862] (09/65) Accurately ripped
10 [5550a5de] (09/65) Accurately ripped
11 [c36d9b52] (08/64) Accurately ripped
12 [ccfc62c5] (08/64) Accurately ripped
13 [bbe9487c] (08/66) Accurately ripped
14 [dd20171e] (08/64) Accurately ripped
15 [3f3ff3a2] (08/64) Accurately ripped
16 [ddaacfcd] (07/63) Accurately ripped
Offsetted by -835:
01 [92c6401b] (03/63) Accurately ripped
02 [5fa4feee] (03/64) Accurately ripped
03 [5722b3a5] (03/64) Accurately ripped
04 [6af61992] (03/66) Accurately ripped
05 [43cb492e] (03/65) Accurately ripped
06 [e4624325] (03/65) Accurately ripped
07 [4e18ac8e] (03/65) Accurately ripped
08 [6408d503] (03/65) Accurately ripped
09 [79010dfa] (03/65) Accurately ripped
10 [9d4dd834] (03/65) Accurately ripped
11 [22637a80] (03/64) Accurately ripped
12 [b2c72d87] (03/64) Accurately ripped
13 [776c9eb2] (04/66) Accurately ripped
14 [3065819d] (03/64) Accurately ripped
15 [80f93d9c] (03/64) Accurately ripped
16 [5335a172] (03/63) Accurately ripped
Offsetted by -659:
01 [99e5ea9d] (31/63) Accurately ripped
02 [b61d9138] (31/64) Accurately ripped
03 [dc8714a6] (30/64) Accurately ripped
04 [47c2c2b1] (31/66) Accurately ripped
05 [32cd498e] (31/65) Accurately ripped
06 [6ef04d75] (31/65) Accurately ripped
07 [a332d55e] (31/65) Accurately ripped
08 [d9ef5d73] (31/65) Accurately ripped
09 [a8d0107a] (31/65) Accurately ripped
10 [6c67e1d4] (31/65) Accurately ripped
11 [fe6e32a0] (31/64) Accurately ripped
12 [25726e67] (31/64) Accurately ripped
13 [b2ed9a52] (31/66) Accurately ripped
14 [b38a132d] (31/64) Accurately ripped
15 [866f76fc] (31/64) Accurately ripped
16 [389837a2] (31/63) Accurately ripped
Offsetted by -542:
01 [232a19af] (06/63) Accurately ripped
02 [ab68eaea] (05/64) Accurately ripped
03 [8009e99c] (06/64) Accurately ripped
04 [d3f42e3f] (06/66) Accurately ripped
05 [41b01288] (06/65) Accurately ripped
06 [c9977450] (06/65) Accurately ripped
07 [27689651] (06/65) Accurately ripped
08 [327e6f6c] (06/65) Accurately ripped
09 [5723dc52] (06/65) Accurately ripped
10 [abe6483a] (06/65) Accurately ripped
11 [55126a1e] (06/64) Accurately ripped
12 [1a672f59] (06/64) Accurately ripped
13 [d3364198] (06/66) Accurately ripped
14 [34e6bf94] (06/64) Accurately ripped
15 [ab855466] (06/64) Accurately ripped
16 [a9cf92bf] (06/63) Accurately ripped
Offsetted by -354:
01 [749ba8a6] (02/63) Accurately ripped
02 [947a171f] (02/64) Accurately ripped
03 [a56a5520] (02/64) Accurately ripped
04 [92630c93] (02/66) Accurately ripped
05 [80fdd8c0] (02/65) Accurately ripped
06 [91f4ff54] (02/65) Accurately ripped
07 [df677075] (02/65) Accurately ripped
08 [41e33b58] (02/65) Accurately ripped
09 [7e927072] (02/65) Accurately ripped
10 [f7aad282] (02/65) Accurately ripped
11 [a3069786] (02/64) Accurately ripped
12 [dab56331] (02/64) Accurately ripped
13 [18974e60] (02/66) Accurately ripped
14 [d270b828] (02/64) Accurately ripped
15 [fcfdcbde] (02/64) Accurately ripped
16 [24a76d5b] (02/63) Accurately ripped
Offsetted by 16:
01 [eff082f2] (08/63) Accurately ripped
02 [8684b23f] (10/64) Accurately ripped
03 [0b77862a] (10/64) Accurately ripped
04 [eac79945] (11/66) Accurately ripped
05 [d7738244] (10/65) Accurately ripped
06 [03c85502] (10/65) Accurately ripped
07 [9df2cc13] (10/65) Accurately ripped
08 [13edb172] (10/65) Accurately ripped
09 [d19fcfe2] (10/65) Accurately ripped
10 [50dea6be] (10/65) Accurately ripped
11 [05fa37b2] (10/64) Accurately ripped
12 [34805165] (10/64) Accurately ripped
13 [1e695f5c] (11/66) Accurately ripped
14 [0051f5ce] (10/64) Accurately ripped
15 [f9ed9bc2] (10/64) Accurately ripped
16 [4f9c805d] (10/63) Accurately ripped

Track Peak [ CRC32 ] [W/O NULL] [ LOG ]
– 99.9 [D8B67628] [C29B754A] CRC32
01 99.9 [D361F03E] [41E811D1]
02 99.9 [4F5417A3] [51910E99]
03 94.4 [22E81FA8] [2F4C263A]
04 99.9 [AA22FA6D] [43C85C7D]
05 99.9 [D2A4D53A] [23EE75B0]
06 99.9 [E22B51BB] [CAC8A176]
07 98.8 [9093D48B] [FFB29AE4]
08 99.9 [A2526588] [BE59F263]
09 98.8 [3B2B46DD] [09871990]
10 99.9 [C7DC0513] [62DC0A10]
11 84.1 [34F930BF] [8600444E]
12 94.4 [FABD2463] [B8EF9B5A]
13 99.9 [8B318D5B] [DF85FBBE]
14 99.9 [5CC5CCDF] [B15CA4AD]
15 99.9 [7D2B75FC] [D16BF15F]
16 99.9 [84C2C8CE] [E2B3C10D]

–––––––––––-

DON'T MODIFY THIS FILE

–––––––––––-

PERFORMER: auCDtect Task Manager, ver. 1.5.1RC6 build 1.5.1.7
Copyright © 2008-2010 y-soft. All rights reserved
http://y-soft.org

ANALYZER: auCDtect: CD records authenticity detector, version 0.8.2
Copyright © 2004 Oleg Berngardt. All rights reserved.
Copyright © 2004 Alexander Djourik. All rights reserved.


FILE: Cheap Trick - Authorized Greatest Hits.flac
Size: 475494420 Hash: 257EA4B36DDA3E8129F33EB38B441C6E Accuracy: -m0
Conclusion: CDDA 100%
Signature: 35D2FF538C32E7F808EE761BF27F8937E4DF2F5E
FILE: Cheap Trick - Authorized Greatest Hits.wav
Size: 702182588 Hash: 257EA4B36DDA3E8129F33EB38B441C6E Accuracy: -m0
Conclusion: CDDA 100%
Signature: EA3DFBB384798371EF614B1885BFBD443620B4E7

You can hear samples at Amazon.
FileServe
Part 1 | Part 2 | Part 3

FileSonic
Part 1| Part 2 | Part 3

Interchangeable archives

Password: www.AvaxHome.ws