Subcategories

Cherubini - Messe Solennelle No 2 D-Moll

Posted By: alekhno
Cherubini - Messe Solennelle No 2 D-Moll

Luigi Cherubini - Messe Solennelle No 2 D-Moll
Classical | EAC Rip, Flac, CUE, LOG | 1 CD | Covers | 313 Mb | rs.com | 1999
Bach-Collegium Sttutgart , Gächinger Kantorei Stuttgart, Helmuth Rilling


KYRIE
GLORIA
GRATIAS
QUI TOLLIS
CREDO
ET INCARNATUS EST
ET RESURREXIT
SANCTUS
BENEDICTUS
AGNUS DEI




Exact Audio Copy V0.99 prebeta 4 from 23. January 2008

Отчёт EAC об извлечении, выполненном 2. апреля 2009, 11:40

Gдchinger Kantorei & Bach-Collegium Stuttgart–Rilling - Cherubini / Messe Solennelle No.2 D-Moll

Дисковод: _NEC DVD_RW ND-4550A Adapter: 1 ID: 0

Режим чтения : Достоверность
Использование точного потока : Да
Отключение кэша аудио : Нет
Использование указателей C2 : Да

Коррекция смещения при чтении : 48
Способность читать области Lead-in и Lead-out : Нет
Заполнение пропущенных сэмплов тишиной : Да
Удаление блоков с тишиной в начале и конце : Нет
При вычислениях CRC использовались нулевые сэмплы : Нет
Интерфейс : Установленный внешний ASPI-интерфейс

Выходной формат : Пользовательский кодировщик
Выбранный битрейт : 1024 kBit/s
Качество : Высокий
Добавление ID3-тэга : Да
Утилита сжатия : C:\Program Files\Exact Audio Copy\FLAC\FLAC.EXE
Дополнительные параметры : -6 -V -T "ARTIST=%a" -T "TITLE=%t" -T "ALBUM=%g" -T "DATE=%y" -T "TRACKNUMBER=%n" -T "GENRE=%m" -T "COMMENT=%e" %s -o %d


TOC извлечённого CD

Трек | Старт | Длительность | Начальный сектор | Конечный сектор
––––––––––––––––––––––––––––––––––-
1 | 0:00.00 | 3:11.47 | 0 | 14371
2 | 3:11.47 | 3:42.30 | 14372 | 31051
3 | 6:54.02 | 4:54.60 | 31052 | 53161
4 | 11:48.62 | 6:39.53 | 53162 | 83139
5 | 18:28.40 | 4:24.40 | 83140 | 102979
6 | 22:53.05 | 7:18.27 | 102980 | 135856
7 | 30:11.32 | 4:18.00 | 135857 | 155206
8 | 34:29.32 | 4:13.05 | 155207 | 174186
9 | 38:42.37 | 3:30.58 | 174187 | 189994
10 | 42:13.20 | 4:04.12 | 189995 | 208306
11 | 46:17.32 | 2:17.73 | 208307 | 218654
12 | 48:35.30 | 1:40.17 | 218655 | 226171
13 | 50:15.47 | 2:49.68 | 226172 | 238914
14 | 53:05.40 | 2:55.47 | 238915 | 252086
15 | 56:01.12 | 0:58.20 | 252087 | 256456
16 | 56:59.32 | 0:57.03 | 256457 | 260734
17 | 57:56.35 | 5:32.32 | 260735 | 285666
18 | 63:28.67 | 0:59.33 | 285667 | 290124
19 | 64:28.25 | 4:53.40 | 290125 | 312139
20 | 69:21.65 | 3:49.47 | 312140 | 329361


Характеристики диапазона извлечения и сообщения об ошибках

Выбранный диапазон

Имя файла C:\Documents and Settings\DimAleh\Рабочий стол\pub\Cherubini - Messe Solennelle No.2 D-Moll\Gдchinger Kantorei & Bach-Collegium Stuttgart–Rilling - Cherubini - Messe Solennelle No.2 D-Moll.wav

Пиковый уровень 100.0 %
Качество диапазона 100.0 %
CRC копии 67D820B4
Копирование… OK

Ошибок не произошло


AccurateRip: сводка

Трек 1 нет в базе данных
Трек 2 нет в базе данных
Трек 3 нет в базе данных
Трек 4 нет в базе данных
Трек 5 нет в базе данных
Трек 6 нет в базе данных
Трек 7 нет в базе данных
Трек 8 нет в базе данных
Трек 9 нет в базе данных
Трек 10 нет в базе данных
Трек 11 нет в базе данных
Трек 12 нет в базе данных
Трек 13 нет в базе данных
Трек 14 нет в базе данных
Трек 15 нет в базе данных
Трек 16 нет в базе данных
Трек 17 нет в базе данных
Трек 18 нет в базе данных
Трек 19 нет в базе данных
Трек 20 нет в базе данных

Ни одного трека нет в базе AccurateRip

Конец отчёта


Label: Hanssler Classics
B00000JMZM







PLEASE NO MIRRORS