Subcategories

Cherubini - Missa Solemnis In E, Motets

Posted By: alekhno
Cherubini - Missa Solemnis In E, Motets

Luigi Cherubini - Missa Solemnis In E, Motets
Classical | EAC Rip | Flac, CUE, LOG | 1 CD | Covers | 197 Mb | rs.com | 2007
Bavarian Radio Symphony Orchestra, Riccardo Muti


Kyrie
Gloria
Credo
Sanctus
O salutaris hostia
Agnus Dei
Antifona sul canto fermo 8. tono per coro misto a 6 voci
Nemo gaudeat in festo septem dolorum B.V. virginis, Motetto a 8 voci




Exact Audio Copy V0.99 prebeta 4 from 23. January 2008

Отчёт EAC об извлечении, выполненном 28. апреля 2009, 13:30

Cherubini / Missa Solemnis in E

Дисковод: _NEC DVD_RW ND-4550A Adapter: 1 ID: 0

Режим чтения : Достоверность
Использование точного потока : Да
Отключение кэша аудио : Нет
Использование указателей C2 : Да

Коррекция смещения при чтении : 48
Способность читать области Lead-in и Lead-out : Нет
Заполнение пропущенных сэмплов тишиной : Да
Удаление блоков с тишиной в начале и конце : Нет
При вычислениях CRC использовались нулевые сэмплы : Нет
Интерфейс : Установленный внешний ASPI-интерфейс

Выходной формат : Пользовательский кодировщик
Выбранный битрейт : 1024 kBit/s
Качество : Высокий
Добавление ID3-тэга : Да
Утилита сжатия : C:\Program Files\Exact Audio Copy\FLAC\FLAC.EXE
Дополнительные параметры : -6 -V -T "ARTIST=%a" -T "TITLE=%t" -T "ALBUM=%g" -T "DATE=%y" -T "TRACKNUMBER=%n" -T "GENRE=%m" -T "COMMENT=%e" %s -o %d


TOC извлечённого CD

Трек | Старт | Длительность | Начальный сектор | Конечный сектор
––––––––––––––––––––––––––––––––––-
1 | 0:00.00 | 5:48.54 | 0 | 26153
2 | 5:48.54 | 8:19.23 | 26154 | 63601
3 | 14:08.02 | 14:20.32 | 63602 | 128133
4 | 28:28.34 | 2:10.48 | 128134 | 137931
5 | 30:39.07 | 3:46.46 | 137932 | 154927
6 | 34:25.53 | 6:05.28 | 154928 | 182330
7 | 40:31.06 | 2:53.72 | 182331 | 195377
8 | 43:25.03 | 7:27.63 | 195378 | 228965


Характеристики диапазона извлечения и сообщения об ошибках

Выбранный диапазон

Имя файла C:\Documents and Settings\DimAleh\Рабочий стол\pub\Cherubini - Missa Solemnis in E (Muti)\Cherubini - Missa Solemnis in E.wav

Пиковый уровень 99.3 %
Качество диапазона 100.0 %
CRC копии 26428635
Копирование… OK

Ошибок не произошло


AccurateRip: сводка

Трек 1 точное извлечение (доверие 3) [D7C50E6E]
Трек 2 точное извлечение (доверие 3) [5EF6851F]
Трек 3 точное извлечение (доверие 3) [C9DA124B]
Трек 4 точное извлечение (доверие 3) [010A5776]
Трек 5 точное извлечение (доверие 3) [410AA660]
Трек 6 точное извлечение (доверие 3) [853DDE7A]
Трек 7 точное извлечение (доверие 3) [55521E8F]
Трек 8 точное извлечение (доверие 2) [C438C36E]

Все треки извлечены точно

Конец отчёта


Label: EMI Classics
B000ROACCK






PLEASE NO MIRRORS