Subcategories

Chick Corea & Gary Burton - Hot House (2012) {Concord}

Posted By: ruskaval
Chick Corea & Gary Burton - Hot House (2012) {Concord}

Chick Corea & Gary Burton - Hot House (2012) {Concord}
EAC rip (secure mode) | FLAC (tracks)+CUE+LOG -> 344 Mb | MP3 @320 -> 178 Mb
Full Artwork @ 300 dpi (jpg) -> 16 Mb | 5% repair rar
© 2012 Concord Jazz / Chick Corea Pro. / Gary Burton Inc. | 888072333635
Jazz / Post Bop / Modern Creative / Piano / Vibes

Hot House is the seventh recording by the duo of pianist Chick Corea and vibraphonist Gary Burton. This time out, Corea and Burton picked pieces by some of their favorite composers – mostly from the jazz world, of course – yet chose compositions that were less than obvious. A shining example is "Can't We Be Friends," an obscure standard closely associated with Art Tatum. Though it's a pop song, Tatum completely reinvented it in his image. In Corea's arrangement, the duo walks a balanced line between classic American pop, jazz modernism, and the legendary pianist's swinging take on stride.

The reading of "Eleanor Rigby" commences with an elliptical piano intro; it's clean, graceful, and gives way to Burton's statement of the melody before the pair moves into a more uptempo engagement with the tune's harmonics. Tadd Dameron's "Hot House" is a conscious nod to the flurried exchanges between Charlie Parker and Dizzy Gillespie, and is nearly pointillistic in its focus; there are gorgeous arpeggios and striking solos – particularly Burton's. The inclusion of Thelonious Monk's "Light Blue" is wonderful. One of the most under-performed of all Monk's compositions, its solemn yet tender emotive tone and brief minor lyric statements are extrapolated upon by Corea to add another melodic statement onto the second chorus. Other standouts include a gracious version of Bill Evans' "Time Remembered," a haunting rendition of Antonio Carlos Jobim's "Chega de Saudade," and a lengthy, massively improvisatory version of Kurt Weill's "My Ship." The set closer, "Mozart Goes Dancing," is the only original included on the set. Written by Corea, it features the pair in the company of the Harlem String Quartet and reflects Corea's dexterity as a composer who uses rhythmic and lyric interplay to extend the reach of classical harmony toward jazz's realm of immediacy. It also contains a healthy dose of his playful sense of humor. The duo's approach in wedding mainstream and modern jazz (often inside the same tune) will appeal mostly to fans of the duo's previous six recordings. That said, Hot House is a further example of the nearly symbiotic language they've developed over the past 40 years, and is a stellar example of masterful dialogic articulation and execution. This is collaboration in its purest and and most elegant form.

INFO

Personnel: Chick Corea: piano; Gary Burton: vibraphone; Ilmar Gavilán: violin (10); Melissa White: violin (10); Juan Miguel Hernandez: viola (10); Paul Wiancko: cello (10).

tracklist:
01. Can't We Be Friends
02. Eleanor Rigby
03. Chega de Saudade
04. Time Remembered
05. Hot House
06. Strange Meadow Lark
07. Light Blue
08. Once I Loved
09. My Ship
10. Mozart Goes Dancing

Exact Audio Copy V1.0 beta 2 from 29. April 2011

EAC extraction logfile from 2. April 2012, 13:10

Chick Corea-Gary Burton / Hot House

Used drive : PLEXTOR CD-R PREMIUM2 Adapter: 1 ID: 1

Read mode : Secure
Utilize accurate stream : Yes
Defeat audio cache : Yes
Make use of C2 pointers : No

Read offset correction : 30
Overread into Lead-In and Lead-Out : No
Fill up missing offset samples with silence : Yes
Delete leading and trailing silent blocks : No
Null samples used in CRC calculations : Yes
Used interface : Installed external ASPI interface
Gap handling : Appended to previous track

Used output format : User Defined Encoder
Selected bitrate : 256 kBit/s
Quality : High
Add ID3 tag : No
Command line compressor : C:\Programmi\eac-1.00\Flac\flac.exe
Additional command line options : -8 -V -T "ARTIST=%artist%" -T "TITLE=%title%" -T "ALBUM=%albumtitle%" -T "DATE=%year%" -T "TRACKNUMBER=%tracknr%" %source%


TOC of the extracted CD

Track | Start | Length | Start sector | End sector
––––––––––––––––––––––––––––-
1 | 0:00.00 | 7:26.65 | 0 | 33514
2 | 7:26.65 | 7:01.48 | 33515 | 65137
3 | 14:28.38 | 10:46.67 | 65138 | 113654
4 | 25:15.30 | 6:13.56 | 113655 | 141685
5 | 31:29.11 | 3:54.43 | 141686 | 159278
6 | 35:23.54 | 7:06.00 | 159279 | 191228
7 | 42:29.54 | 6:04.27 | 191229 | 218555
8 | 48:34.06 | 7:22.68 | 218556 | 251773
9 | 55:56.74 | 11:53.64 | 251774 | 305312
10 | 67:50.63 | 7:14.00 | 305313 | 337862


Track 1

Filename D:\My Rip\01 - Can't We Be Friends.wav

Pre-gap length 0:00:02.00

Peak level 97.8 %
Extraction speed 8.7 X
Track quality 99.9 %
Test CRC 849C2AFD
Copy CRC 849C2AFD
Track not present in AccurateRip database
Copy OK

Track 2

Filename D:\My Rip\02 - Eleanor Rigby.wav

Pre-gap length 0:00:02.47

Peak level 98.4 %
Extraction speed 9.9 X
Track quality 99.9 %
Test CRC D6B372E6
Copy CRC D6B372E6
Track not present in AccurateRip database
Copy OK

Track 3

Filename D:\My Rip\03 - Chega de Saudade.wav

Pre-gap length 0:00:01.72

Peak level 95.0 %
Extraction speed 12.3 X
Track quality 100.0 %
Test CRC 124FA9ED
Copy CRC 124FA9ED
Track not present in AccurateRip database
Copy OK

Track 4

Filename D:\My Rip\04 - Time Remembered.wav

Pre-gap length 0:00:03.09

Peak level 94.7 %
Extraction speed 12.6 X
Track quality 100.0 %
Test CRC 46C5305A
Copy CRC 46C5305A
Track not present in AccurateRip database
Copy OK

Track 5

Filename D:\My Rip\05 - Hot House.wav

Pre-gap length 0:00:01.65

Peak level 96.3 %
Extraction speed 13.1 X
Track quality 100.0 %
Test CRC 4EF7EBF2
Copy CRC 4EF7EBF2
Track not present in AccurateRip database
Copy OK

Track 6

Filename D:\My Rip\06 - Strange Meadow Lark.wav

Pre-gap length 0:00:03.16

Peak level 94.4 %
Extraction speed 14.9 X
Track quality 100.0 %
Test CRC D69480ED
Copy CRC D69480ED
Track not present in AccurateRip database
Copy OK

Track 7

Filename D:\My Rip\07 - Light Blue.wav

Pre-gap length 0:00:02.43

Peak level 95.9 %
Extraction speed 15.4 X
Track quality 100.0 %
Test CRC A7A2E8C4
Copy CRC A7A2E8C4
Track not present in AccurateRip database
Copy OK

Track 8

Filename D:\My Rip\08 - Once I Loved.wav

Pre-gap length 0:00:03.00

Peak level 99.0 %
Extraction speed 14.3 X
Track quality 99.9 %
Test CRC 1A90770F
Copy CRC 1A90770F
Track not present in AccurateRip database
Copy OK

Track 9

Filename D:\My Rip\09 - My Ship.wav

Pre-gap length 0:00:03.36

Peak level 95.4 %
Extraction speed 16.8 X
Track quality 100.0 %
Test CRC 08757A7C
Copy CRC 08757A7C
Track not present in AccurateRip database
Copy OK

Track 10

Filename D:\My Rip\10 - Mozart Goes Dancing.wav

Pre-gap length 0:00:03.57

Peak level 100.0 %
Extraction speed 17.2 X
Track quality 100.0 %
Test CRC 05B15099
Copy CRC 05B15099
Track not present in AccurateRip database
Copy OK


None of the tracks are present in the AccurateRip database

No errors occurred

End of status report

==== Log checksum 720EA923C445ED1D79C6F932DC59DCD606C9318B4B4065C5E30C92B813532334 ====


Chick Corea & Gary Burton - Hot House (2012) {Concord}

Chick Corea & Gary Burton - Hot House (2012) {Concord}


Thanks to Sarchiapone!