Subcategories

Chick Corea (Priceless Jazz) (1997)

Posted By: KGmB
Chick Corea (Priceless Jazz) (1997)

Chick Corea (Priceless Jazz) (1997)
EAC Rip | FLAC, Image + CUE, LOG | 325 MB | MP3 CBR 320 Kbps | 108 MB | Complete Scans | 18 MB
Jazz piano | Label: GRP Rec. | Catalog Number: GRD-9878 | RAR 3% Rec. | RS.com, DF.com

Many jazz musicians hold the mystery of the moment in high regard. In the blink of an eye, a musical feeling minht change - intensify or dissolve, erupt or disappear. The options available to an improviser at any given section of a tune are what attracts so many free thinkers to jazz. Pianist-composer is certainly part of that respected crowd. One of the music's most successful bandleaders, his regard for spontaneous invention could't any higher.

Tracklist:

01. Trance Dance 5:51 (rec. in 1988, L.A.California)
02. Spain 5:57 (rec. 1989, N.Y.City)
03. Cool Weasel Boogie 6:46 (rec. in 1986, L.A.California)
04. Got A Match? 5:41 (rec. in 1986, L.A.California)
05. Light Years 3:56 (rec. in 1987, L.A.California)
06. Eternal Child 4:55 (rec. in 1988, L.A.California)
07. Make A Wish, Part I 1:39 (rec. in 1990, L.A.California)
08. Make A Wish, Part II 6:20 (rec. in 1990, L.A.California)
09. 99 Flavors 3:58 (rec. in 1991, L.A.California)
10. Blue Miles 5:30 (rec. in 1993, L.A.California)

Exact Audio Copy V0.99 prebeta 4 from 23. January 2008

EAC extraction logfile from 17. May 2009, 14:55

Chick Corea / Chick Corea (Priceless Jazz)

Used drive : HL-DT-STRW/DVD GCC-4480B Adapter: 1 ID: 0

Read mode : Secure
Utilize accurate stream : Yes
Defeat audio cache : No
Make use of C2 pointers : Yes

Read offset correction : 6
Overread into Lead-In and Lead-Out : No
Fill up missing offset samples with silence : Yes
Delete leading and trailing silent blocks : No
Null samples used in CRC calculations : No
Used interface : Installed external ASPI interface

Used output format : User Defined Encoder
Selected bitrate : 1024 kBit/s
Quality : High
Add ID3 tag : Yes
Command line compressor : C:\Program Files\codecs\flac.exe
Additional command line options : –best -T "ARTIST=%a" -T "TITLE=%t" -T "ALBUM=%g" -T "DATE=%y" -T "TRACKNUMBER=%n" -T "GENRE=%m" %s

TOC of the extracted CD

Track | Start | Length | Start sector | End sector
––––––––––––––––––––––––––––-
1 | 0:00.00 | 5:51.25 | 0 | 26349
2 | 5:51.25 | 5:57.17 | 26350 | 53141
3 | 11:48.42 | 6:46.43 | 53142 | 83634
4 | 18:35.10 | 5:41.05 | 83635 | 109214
5 | 24:16.15 | 3:56.70 | 109215 | 126984
6 | 28:13.10 | 4:55.20 | 126985 | 149129
7 | 33:08.30 | 1:39.17 | 149130 | 156571
8 | 34:47.47 | 6:20.73 | 156572 | 185144
9 | 41:08.45 | 3:58.12 | 185145 | 203006
10 | 45:06.57 | 5:30.00 | 203007 | 227756

Range status and errors

Selected range

Filename D:\Uploads\Chick Corea - Chick Corea (Priceless Jazz)\Chick Corea - Chick Corea (Priceless Jazz).wav

Peak level 99.9 %
Range quality 100.0 %
Test CRC A0707818
Copy CRC A0707818
Copy OK

No errors occurred

End of status report

Download Rapidshare:

in Lossless
part1 | part2 | part3 | part4

Download Depositfiles:

MP3 lossy files
part1 | part2

Artwork
covers

Don't post mirrors, please

My Blog