Subcategories

Chopin: Complete Music for Piano & Orchestra, Piano Sonatas 2 & 3 / Weissenberg

Posted By: Berthold_80
Chopin: Complete Music for Piano & Orchestra, Piano Sonatas 2 & 3 / Weissenberg

Chopin: Complete music for piano & orchestra, etc. / Weissenberg
EMI Classics | October 02, 2007 | 3 CDs
EAC | ape | img + cue | logs | 698 MB

Some will probably enjoy Weissenberg's bracing bucket of ice immensely.

Generally EMI Classics has packaged up in its Triples series recordings that can be safely recommended to newcomers. This EMI Triple, however, is a box of controversy. Any novice who is tempted by this release as a means of sweeping up Chopin's works for piano and orchestra with a couple of piano sonatas into the bargain is likely to be very puzzled. “I thought Chopin was a Romantic poet. What is this blood and fire stuff? There must be some mistake!”
There is no mistake, at least not as far as the identity of the composer is concerned. This is Chopin, yes, but not the noble, poetic Chopin of the Rubinstein school. Alexis Weissenberg is an uncompromising and almost cruel Chopin pianist, deploying his powerful technique to devastating effect. Weissenberg's tone has been described as flinty. To me it sounds like ringing steel.
I'll start with the final, piano solo disc in this Triple. Listening to it straight through is an almost overwhelming experience. The second piano sonata – famous for its funeral march third movement – is terrifying, violent and headlong. Chopin's poetry is glimpsed in scattered passages, but for the most part is ousted by an angry Lizstian bravura. The opening movement is heavy-handed and the scherzo veers from suggestions of beauty to relentless build up. The presto finale flies by in a disorientating whirl. There is feeling in the funeral march though: Weissenberg's powerful fingers reach deep into the keys for a unique sonority that seems to have been dragged out of the earth itself.
The third sonata is cut from the same interpretative cloth. Knuckleduster chords and coruscating cascades of notes sparked by brute force jostle with flashes of lyricism and charm, which appear more to highlight their general absence than for contrast or to relieve the frightened listener.
The Polonaise-fantaisie that closes the disc and the set is thankfully a little gentler. It was recorded in 1967 at the same time as discs 1 and 2 and almost a decade before its stable mates on disc 3. Though the younger Weissenberg was just as strong-fingered, chord-focused and unsentimental as the punishing Weissenberg of the 1970s, he is not quite so angry.
This is true in the concertos too, which also benefit from the contribution of the orchestra. The Orchestre de la Société des Concerts du Conservatoire under Stanislaw Skrowaczewski offer a heavy-footed but full-bodied accompaniment which sounds well, if a bit old fashioned, and importantly provides contrast to the cold brilliance and forceful drive of Weissenberg's playing. He does find more to wax lyrical over in the concertos. On the other hand, his heavy hands, occasionally pointillistic playing - for example, around the five minute mark in the first movement of the second concerto - and lack of interest in Chopin's faux operatic cantabile lines - for example the slow movement of the second concerto – the slow movement of the first fares better. Add to this his odd tempo choices - the allegro vivace finale of the second concerto, for example, is more of an allegretto – and I am afraid the best that can be managed is a qualified recommendation.
The shorter concertante items fare better again, as if Weissenberg has decided that less important works are less in need of a working over. He is more volatile in Variations on Mozart's “Lá ci darem la mano” than in the Andante spianato and Grande Polonaise, the Fantasy on Polish National Airs and Krakowiak, but as it was the Mozart Variations that inspired Schumann to proclaim Chopin a genius – as the liner-notes remind us – then perhaps it is important enough for a little fire.
Weissenberg's Chopin is not for the faint hearted, but it does have its fans. No less a pianist than Glenn Gould commented parenthetically in an article in the May 1976 issue of High Fidelity that: “I always felt that I could live without the Chopin concertos and managed to until Alexis Weissenberg dusted the cobwebs from Mme. Sand’s salon and made those works a contemporary experience.” Gould brands Weissenberg's Chopin as a “unique example of the rite of re-creation”, alongside Barbara Streisand's Classical Barbara album. Take from that what you will. In any case, those jaded listeners who cannot bear talk of the warmth of Chopin's limpid beauty will probably enjoy Weissenberg's bracing bucket of ice immensely.
– Tim Perry, MusicWeb International


Frédéric Chopin:

CD 1
Piano Concerto No.1 in E minor Op.11
Variations on Mozart's "Là ci darem la mano" in B Op.2
Andante spianato & Grande Polonaise in E flat Op.22


CD 2
Piano Concerto No.2 in F minor Op.21
Fantasy in A on Polish National Airs Op.13
Krakowiak: Concert Rondo in F Op.14


CD 3
Piano Sonata No.2 in B flat minor Οp.35 "Funeral March"
Piano Sonata No.3 in B minor Op.58
Polonaise-fantaisie in A flat Op.61



Alexis Weissenberg, piano

CD 1 & 2:
Orchestre de la Société des Concerts du Conservatoire
Stanislaw Skrowaczewski


Recorded: 11-15.IX.1967 (CD 1), 4-9.IX.1967 (CD 2), 15-18.IX.1975, 7-8.IV & 11 & 13.X.1976 (Op.35), 5.IX.1977 (Op.58), 9.X.1967 (Op.61), Salle Wagram, Paris.

EAC logs:
Exact Audio Copy V0.99 prebeta 5 from 4. May 2009

EAC extraction logfile from 26. December 2009, 15:43

Alexis Weissenberg / Chopin: Complete music for Piano & Orchestra (CD 1)

Used drive : MATSHITADVD-RAM UJ880AS Adapter: 0 ID: 1

Read mode : Secure
Utilize accurate stream : Yes
Defeat audio cache : Yes
Make use of C2 pointers : No

Read offset correction : 102
Overread into Lead-In and Lead-Out : No
Fill up missing offset samples with silence : Yes
Delete leading and trailing silent blocks : No
Null samples used in CRC calculations : No
Used interface : Native Win32 interface for Win NT & 2000

Used output format : User Defined Encoder
Selected bitrate : 320 kBit/s
Quality : High
Add ID3 tag : No
Command line compressor : C:\Program Files\Exact Audio Copy\wapet\wapet.exe
Additional command line options : %d -t "Artist=%a" -t "Title=%t" -t "Album=%g" -t "Year=%y" -t "Track=%n" -t "Genre=%m" "C:\Program Files\Monkey's Audio\MAC.exe" %s %d -c2000


TOC of the extracted CD

Track | Start | Length | Start sector | End sector
––––––––––––––––––––––––––––-
1 | 0:00.32 | 21:04.13 | 32 | 94844
2 | 21:04.45 | 10:31.15 | 94845 | 142184
3 | 31:35.60 | 10:06.67 | 142185 | 187701
4 | 41:42.52 | 4:18.35 | 187702 | 207086
5 | 46:01.12 | 1:22.70 | 207087 | 213306
6 | 47:24.07 | 0:58.65 | 213307 | 217721
7 | 48:22.72 | 1:02.63 | 217722 | 222434
8 | 49:25.60 | 1:13.30 | 222435 | 227939
9 | 50:39.15 | 1:02.37 | 227940 | 232626
10 | 51:41.52 | 1:31.20 | 232627 | 239471
11 | 53:12.72 | 3:41.68 | 239472 | 256114
12 | 56:54.65 | 4:27.70 | 256115 | 276209
13 | 61:22.60 | 9:08.47 | 276210 | 317356


Range status and errors

Selected range

Filename E:\Uploads\CHOPIN Piano Concertos, Sonatas 2 & 3 - Weissenberg CD 1\Alexis Weissenberg - Chopin Complete music for Piano & Orchestra (CD 1).wav

Peak level 99.1 %
Range quality 100.0 %
Copy CRC 204E62B9
Copy OK

No errors occurred


AccurateRip summary

Track 1 not present in database
Track 2 not present in database
Track 3 not present in database
Track 4 not present in database
Track 5 not present in database
Track 6 not present in database
Track 7 not present in database
Track 8 not present in database
Track 9 not present in database
Track 10 not present in database
Track 11 not present in database
Track 12 not present in database
Track 13 not present in database

None of the tracks are present in the AccurateRip database

End of status report

Exact Audio Copy V0.99 prebeta 5 from 4. May 2009

EAC extraction logfile from 27. December 2009, 12:33

Alexis Weissenberg / Chopin: Complete music for Piano & Orchestra (CD 2)

Used drive : MATSHITADVD-RAM UJ880AS Adapter: 0 ID: 1

Read mode : Secure
Utilize accurate stream : Yes
Defeat audio cache : Yes
Make use of C2 pointers : No

Read offset correction : 102
Overread into Lead-In and Lead-Out : No
Fill up missing offset samples with silence : Yes
Delete leading and trailing silent blocks : No
Null samples used in CRC calculations : No
Used interface : Native Win32 interface for Win NT & 2000

Used output format : User Defined Encoder
Selected bitrate : 320 kBit/s
Quality : High
Add ID3 tag : No
Command line compressor : C:\Program Files\Exact Audio Copy\wapet\wapet.exe
Additional command line options : %d -t "Artist=%a" -t "Title=%t" -t "Album=%g" -t "Year=%y" -t "Track=%n" -t "Genre=%m" "C:\Program Files\Monkey's Audio\MAC.exe" %s %d -c2000


TOC of the extracted CD

Track | Start | Length | Start sector | End sector
––––––––––––––––––––––––––––-
1 | 0:00.32 | 15:02.15 | 32 | 67696
2 | 15:02.47 | 10:55.15 | 67697 | 116836
3 | 25:57.62 | 8:51.13 | 116837 | 156674
4 | 34:49.00 | 13:52.37 | 156675 | 219111
5 | 48:41.37 | 14:11.70 | 219112 | 283006


Range status and errors

Selected range

Filename E:\Uploads\CHOPIN Piano Concertos, Sonatas 2 & 3 - Weissenberg CD 2\Alexis Weissenberg - Chopin Complete music for Piano & Orchestra (CD 2).wav

Peak level 97.0 %
Range quality 100.0 %
Copy CRC 35ABF2E3
Copy OK

No errors occurred


AccurateRip summary

Track 1 not present in database
Track 2 not present in database
Track 3 not present in database
Track 4 not present in database
Track 5 not present in database

None of the tracks are present in the AccurateRip database

End of status report

Exact Audio Copy V0.99 prebeta 5 from 4. May 2009

EAC extraction logfile from 27. December 2009, 15:47

Alexis Weissenberg / Chopin: Complete music for Piano & Orchestra (CD 3)

Used drive : MATSHITADVD-RAM UJ880AS Adapter: 0 ID: 1

Read mode : Secure
Utilize accurate stream : Yes
Defeat audio cache : Yes
Make use of C2 pointers : No

Read offset correction : 102
Overread into Lead-In and Lead-Out : No
Fill up missing offset samples with silence : Yes
Delete leading and trailing silent blocks : No
Null samples used in CRC calculations : No
Used interface : Native Win32 interface for Win NT & 2000

Used output format : User Defined Encoder
Selected bitrate : 320 kBit/s
Quality : High
Add ID3 tag : No
Command line compressor : C:\Program Files\Exact Audio Copy\wapet\wapet.exe
Additional command line options : %d -t "Artist=%a" -t "Title=%t" -t "Album=%g" -t "Year=%y" -t "Track=%n" -t "Genre=%m" "C:\Program Files\Monkey's Audio\MAC.exe" %s %d -c2000


TOC of the extracted CD

Track | Start | Length | Start sector | End sector
––––––––––––––––––––––––––––-
1 | 0:00.33 | 6:41.32 | 33 | 30139
2 | 6:41.65 | 6:07.58 | 30140 | 57722
3 | 12:49.48 | 9:45.32 | 57723 | 101629
4 | 22:35.05 | 1:39.53 | 101630 | 109107
5 | 24:14.58 | 11:25.22 | 109108 | 160504
6 | 35:40.05 | 2:35.13 | 160505 | 172142
7 | 38:15.18 | 9:59.32 | 172143 | 217099
8 | 48:14.50 | 4:51.58 | 217100 | 238982
9 | 53:06.33 | 13:53.57 | 238983 | 301514


Range status and errors

Selected range

Filename E:\Uploads\CHOPIN Piano Concertos, Sonatas 2 & 3 - Weissenberg CD 3\Alexis Weissenberg - Chopin Complete music for Piano & Orchestra (CD 3).wav

Peak level 55.0 %
Range quality 100.0 %
Copy CRC D29097E5
Copy OK

No errors occurred


AccurateRip summary

Track 1 cannot be verified as accurate (confidence 2) [711766B8], AccurateRip returned [71E74916]
Track 2 cannot be verified as accurate (confidence 2) [BEDD7911], AccurateRip returned [21D97B21]
Track 3 cannot be verified as accurate (confidence 2) [82418724], AccurateRip returned [98D4299A]
Track 4 cannot be verified as accurate (confidence 2) [EB857692], AccurateRip returned [C7F73076]
Track 5 cannot be verified as accurate (confidence 2) [F9C6AEF5], AccurateRip returned [D227EE05]
Track 6 cannot be verified as accurate (confidence 2) [524BDAD9], AccurateRip returned [AAA54982]
Track 7 cannot be verified as accurate (confidence 2) [BB3E9301], AccurateRip returned [BF9D07EC]
Track 8 cannot be verified as accurate (confidence 2) [BFC778AD], AccurateRip returned [C94F6391]
Track 9 cannot be verified as accurate (confidence 2) [86A3DA9B], AccurateRip returned [B574C091]

No tracks could be verified as accurate
You may have a different pressing from the one(s) in the database

End of status report


Download:
CD 1: part 1, part 2, part 3
CD 2: part 1, part 2, part 3
CD 3: part 1, part 2, part 3
Password: gv80