Subcategories

Frederic Chopin - Olga Kern - Piano Concerto No.1 (2006) {Hybrid-SACD // EAC Rip}

Posted By: luckburz
 Frederic Chopin - Olga Kern - Piano Concerto No.1 (2006) {Hybrid-SACD // EAC Rip}

Frederic Chopin - Piano Concerto No.1
Olga Kern / Warsaw Philharmonic / Antoni Wit
EAC+LOG+CUE | FLAC: 242 MB | Full Artwork | 5% Recovery Info
Label/Cat#: Harmonia Mundi # HMU 807402 | Country/Year: Europe 2006
Genre: Classical | Style: Romantic

MD5 [X] CUE [X] LOG [X] INFO TEXT [X] ARTWORK [X]

selfrip [X] not my rip []

 Frederic Chopin - Olga Kern - Piano Concerto No.1 (2006) {Hybrid-SACD // EAC Rip}


Exact Audio Copy V1.0 beta 2 from 29. April 2011

EAC extraction logfile from 30. May 2012, 18:48

Olga Kern, Warsaw Philharmonic, Antoni Wit / Chopin - Piano Concerto No. 1

Used drive : PIONEER BD-RW BDR-206 Adapter: 2 ID: 3

Read mode : Secure
Utilize accurate stream : Yes
Defeat audio cache : Yes
Make use of C2 pointers : No

Read offset correction : 667
Overread into Lead-In and Lead-Out : No
Fill up missing offset samples with silence : Yes
Delete leading and trailing silent blocks : No
Null samples used in CRC calculations : Yes
Used interface : Native Win32 interface for Win NT & 2000

Used output format : User Defined Encoder
Selected bitrate : 896 kBit/s
Quality : High
Add ID3 tag : No
Command line compressor : C:\Program Files\FLAC\flac.exe
Additional command line options : -5 -T "Artist=%artist%" -T "Title=%title%" -T "Album=%albumtitle%" -T "Date=%year%" -T "Tracknumber=%tracknr%" -T "Genre=%genre%" %source% -o %dest%


TOC of the extracted CD

Track | Start | Length | Start sector | End sector
––––––––––––––––––––––––––––-
1 | 0:00.00 | 20:05.10 | 0 | 90384
2 | 20:05.10 | 9:57.05 | 90385 | 135164
3 | 30:02.15 | 10:14.55 | 135165 | 181269
4 | 40:16.70 | 14:08.65 | 181270 | 244934
5 | 54:25.60 | 7:19.20 | 244935 | 277879
6 | 61:45.05 | 5:24.15 | 277880 | 302194
7 | 67:09.20 | 6:48.65 | 302195 | 332859


Range status and errors

Selected range

Filename I:\=== VINYL RIPS ===\=== EAC===\X FRESH RIP\Chopin, Kern - Piano Concerto No. 1.wav

Peak level 100.0 %
Extraction speed 2.0 X
Range quality 100.0 %
Test CRC D0DDA77B
Copy CRC D0DDA77B
Copy OK

No errors occurred


AccurateRip summary

Track 1 accurately ripped (confidence 10) [B06CCA67] (AR v1)
Track 2 accurately ripped (confidence 10) [21D5869A] (AR v1)
Track 3 accurately ripped (confidence 10) [ECFE0FFC] (AR v1)
Track 4 accurately ripped (confidence 10) [4C67E45E] (AR v1)
Track 5 accurately ripped (confidence 10) [3B2DF833] (AR v1)
Track 6 accurately ripped (confidence 10) [8EEF3803] (AR v1)
Track 7 accurately ripped (confidence 10) [490E0C0F] (AR v1)

All tracks accurately ripped

End of status report

==== Log checksum 07D97D200BAE4A0250EEDE3DF1BEECF4341709B01DB823D65470C27E3E45F0AA ====

foobar2000 1.1.11 / Dynamic Range Meter 1.1.1
log date: 2012-06-04 12:01:13

––––––––––––––––––––––––––––––––––––––––
Analyzed: Olga Kern, piano Warsaw Philharmonic Orchestra, dir. Antoni Wit / Olga Kern, music of Frederic Chopin
––––––––––––––––––––––––––––––––––––––––

DR Peak RMS Duration Track
––––––––––––––––––––––––––––––––––––––––
DR14 -0.01 dB -20.59 dB 20:07 01-Piano Concerto No. 1 in E minor, Op. 11 I Allegro maestoso
DR14 -7.55 dB -26.95 dB 9:56 02-Piano Concerto No. 1 in E minor, Op. 11 II Romanze: Larghetto
DR14 -1.22 dB -20.59 dB 10:15 03-Piano Concerto No. 1 in E minor, Op. 11 III Rondo: Vivace
DR14 -2.64 dB -21.83 dB 14:10 04-Fantaisie in F minor, Op. 49
DR14 -0.49 dB -21.96 dB 7:19 05-Bolero, Op. 19
DR13 -3.22 dB -23.82 dB 5:24 06-Fantaisie-Impromptu, Op. 66
DR13 -0.57 dB -17.71 dB 6:49 07-Polonaise in A-flat major, Op. 53
––––––––––––––––––––––––––––––––––––––––

Number of tracks: 7
Official DR value: DR14

Samplerate: 88200 Hz
Channels: 2
Bits per sample: 24
Bitrate: 2221 kbps
Codec: FLAC
================================================================================


CD Info:

Frederic Chopin - Olga Kern, Warsaw Philharmonic, Antoni Wit - Piano Concerto No.1

Label: Harmonia Mundi US
Catalog#: HMU 807402
Format: Hybrid-SACD, Album, Stereo, Multichannel
Country: Europe
Released: 2006
Genre: Classical
Style: Romantic

Tracklist:

1 - Piano Concerto No. 1 in E minor, Op. 11 I Allegro maestoso 20:07
2 - Piano Concerto No. 1 in E minor, Op. 11 II Romanze: Larghetto 9:56
3 - Piano Concerto No. 1 in E minor, Op. 11 III Rondo: Vivace 10:15
4 - Fantaisie in F minor, Op. 49 14:10
5 - Bolero, Op. 19 7:19
6 - Fantaisie-Impromptu, Op. 66 5:24
7 - Polonaise in A-flat major, Op. 53 6:49

 Frederic Chopin - Olga Kern - Piano Concerto No.1 (2006) {Hybrid-SACD // EAC Rip}


The HiRes version can be found over here:
Frederic Chopin - Olga Kern - Piano Concerto No.1 (2006) {Hybrid-SACD // ISO & HiRes FLAC}

// my SACD rips \\
// classical music \\
// all of my uploads \\
________________

Download:
FLAC
Artwork
________________