Subcategories

Frederic Chopin - Gunther Rost - 24 Preludes, Op.28 arranged for organ (2011) {Hybrid-SACD // EAC Rip}

Posted By: luckburz
 Frederic Chopin - Gunther Rost - 24 Preludes, Op.28 arranged for organ (2011) {Hybrid-SACD // EAC Rip}

Frederic Chopin - Gunther Rost - 24 Preludes, Op.28 (arranged for organ)
EAC+LOG+CUE | FLAC: 175 MB | Full Artwork | 5% Recovery Info
Label/Cat#: Oehms Classics # OC 681 | Country/Year: Germany 2011
Genre: Classical | Style: Romantic, Organ

MD5 [X] CUE [X] LOG [X] INFO TEXT [X] ARTWORK [X]

selfrip [X] not my rip []

 Frederic Chopin - Gunther Rost - 24 Preludes, Op.28 arranged for organ (2011) {Hybrid-SACD // EAC Rip}


Exact Audio Copy V1.0 beta 3 from 29. August 2011

EAC extraction logfile from 19. September 2012, 16:35

Gunther Rost / Chopin: 24 Preludes, Op. 28 (Arr. For Organ)

Used drive : PIONEER BD-RW BDR-206 Adapter: 0 ID: 2

Read mode : Secure
Utilize accurate stream : Yes
Defeat audio cache : Yes
Make use of C2 pointers : No

Read offset correction : 667
Overread into Lead-In and Lead-Out : No
Fill up missing offset samples with silence : Yes
Delete leading and trailing silent blocks : No
Null samples used in CRC calculations : Yes
Used interface : Native Win32 interface for Win NT & 2000

Used output format : User Defined Encoder
Selected bitrate : 1024 kBit/s
Quality : High
Add ID3 tag : Yes
Command line compressor : C:\Program Files\FLAC\flac.exe
Additional command line options : -5 -T "Artist=%artist%" -T "Title=%title%" -T "Album=%albumtitle%" -T "Date=%year%" -T "Tracknumber=%tracknr%" -T "Genre=%genre%" %source% -o %dest%


TOC of the extracted CD

Track | Start | Length | Start sector | End sector
––––––––––––––––––––––––––––-
1 | 0:00.00 | 1:14.21 | 0 | 5570
2 | 1:14.21 | 3:05.29 | 5571 | 19474
3 | 4:19.50 | 1:08.10 | 19475 | 24584
4 | 5:27.60 | 2:46.28 | 24585 | 37062
5 | 8:14.13 | 0:50.59 | 37063 | 40871
6 | 9:04.72 | 2:26.55 | 40872 | 51876
7 | 11:31.52 | 0:50.54 | 51877 | 55680
8 | 12:22.31 | 2:09.18 | 55681 | 65373
9 | 14:31.49 | 1:33.08 | 65374 | 72356
10 | 16:04.57 | 1:03.48 | 72357 | 77129
11 | 17:08.30 | 1:03.15 | 77130 | 81869
12 | 18:11.45 | 1:31.02 | 81870 | 88696
13 | 19:42.47 | 3:57.10 | 88697 | 106481
14 | 23:39.57 | 0:52.24 | 106482 | 110405
15 | 24:32.06 | 8:55.66 | 110406 | 150596
16 | 33:27.72 | 1:18.56 | 150597 | 156502
17 | 34:46.53 | 3:34.52 | 156503 | 172604
18 | 38:21.30 | 1:18.74 | 172605 | 178528
19 | 39:40.29 | 1:35.57 | 178529 | 185710
20 | 41:16.11 | 1:34.72 | 185711 | 192832
21 | 42:51.08 | 2:31.16 | 192833 | 204173
22 | 45:22.24 | 0:58.37 | 204174 | 208560
23 | 46:20.61 | 1:22.19 | 208561 | 214729
24 | 47:43.05 | 3:02.70 | 214730 | 228449


Range status and errors

Selected range

Filename F:\=== VINYL RIPS ===\=== EAC===\X FRESH RIP\Chopin- Gunther Rost - 24 Preludes, Op. 28 (Arr. For Organ).wav

Peak level 95.4 %
Extraction speed 7.2 X
Range quality 100.0 %
Test CRC C702D303
Copy CRC C702D303
Copy OK

No errors occurred


AccurateRip summary

Track 1 not present in database
Track 2 not present in database
Track 3 not present in database
Track 4 not present in database
Track 5 not present in database
Track 6 not present in database
Track 7 not present in database
Track 8 not present in database
Track 9 not present in database
Track 10 not present in database
Track 11 not present in database
Track 12 not present in database
Track 13 not present in database
Track 14 not present in database
Track 15 not present in database
Track 16 not present in database
Track 17 not present in database
Track 18 not present in database
Track 19 not present in database
Track 20 not present in database
Track 21 not present in database
Track 22 not present in database
Track 23 not present in database
Track 24 not present in database

None of the tracks are present in the AccurateRip database

End of status report

–– CUETools DB Plugin V2.1.3

[CTDB TOCID: CgYGyh_7AO4pNT6zwd.F18Oz1Fk-] disk not present in database, Submit result: database access error: Die Anfrage wurde abgebrochen: Die Anfrage wurde abgebrochen..


==== Log checksum 16D5DD827E2EFD7333F6680815E591231126C543F925DB27C69F639AE208EB54 ====

foobar2000 1.1.11 / Dynamic Range Meter 1.1.1
log date: 2012-10-10 20:44:04

––––––––––––––––––––––––––––––––––––––––
Analyzed: Gunther Rost / Fryderik Chopin: 24 Preludes op.28
––––––––––––––––––––––––––––––––––––––––

DR Peak RMS Duration Track
––––––––––––––––––––––––––––––––––––––––
DR10 -16.27 dB -32.48 dB 1:14 01-Prelude op.28, 1
DR10 -24.63 dB -38.69 dB 3:05 02-Prelude op.28, 2
DR10 -23.50 dB -37.13 dB 1:08 03-Prelude op.28, 3
DR10 -24.76 dB -39.59 dB 2:46 04-Prelude op.28, 4
DR12 -20.58 dB -40.05 dB 0:51 05-Prelude op.28, 5
DR9 -27.53 dB -39.52 dB 2:27 06-Prelude op.28, 6
DR11 -26.56 dB -48.97 dB 0:51 07-Prelude op.28, 7
DR10 -11.02 dB -26.16 dB 2:09 08-Prelude op.28, 8
DR9 -7.27 dB -23.09 dB 1:33 09-Prelude op.28, 9
DR10 -19.60 dB -36.35 dB 1:04 10-Prelude op.28, 10
DR9 -31.25 dB -44.35 dB 1:03 11-Prelude op.28, 11
DR11 -9.89 dB -27.29 dB 1:31 12-Prelude op.28, 12
DR10 -25.35 dB -39.85 dB 3:57 13-Prelude op.28, 13
DR9 -13.95 dB -26.63 dB 0:52 14-Prelude op.28, 14
DR15 -9.04 dB -31.10 dB 8:56 15-Prelude op.28, 15
DR14 -8.35 dB -28.64 dB 1:19 16-Prelude op.28, 16
DR10 -22.15 dB -37.28 dB 3:35 17-Prelude op.28, 17
DR12 -6.54 dB -23.62 dB 1:19 18-Prelude op.28, 18
DR9 -16.71 dB -38.76 dB 1:36 19-Prelude op.28, 19
DR10 -8.96 dB -26.74 dB 1:35 20-Prelude op.28, 20
DR11 -12.10 dB -30.16 dB 2:31 21-Prelude op.28, 21
DR12 -6.40 dB -23.55 dB 0:58 22-Prelude op.28, 22
DR10 -25.88 dB -40.04 dB 1:22 23-Prelude op.28, 23
DR12 -7.16 dB -23.98 dB 3:03 24-Prelude op.28, 24
––––––––––––––––––––––––––––––––––––––––

Number of tracks: 24
Official DR value: DR11

Samplerate: 2822400 Hz / PCM Samplerate: 176400 Hz
Channels: 2
Bits per sample: 24
Bitrate: 5645 kbps
Codec: DSD64
================================================================================



CD Info:

Frederic Chopin - Gunther Rost - 24 Preludes, Op.28 arranged for organ

Label: Oehms Classics
Catalog#: OC 681
Format: Hybrid-SACD, Album, Stereo, Multichannel
Country: Germany
Released: 2011
Genre: Classical
Style: Romantic, Organ

Tracklist:

01. Preludes, Op. 28 (Arr. G. Rost For Organ) - No. 1 In C Major 1:14
02. Preludes, Op. 28 (Arr. G. Rost For Organ) - No. 2 In A Minor 3:05
03. Preludes, Op. 28 (Arr. G. Rost For Organ) - No. 3 In G Major 1:08
04. Preludes, Op. 28 (Arr. G. Rost For Organ) - No. 4 In E Minor 2:46
05. Preludes, Op. 28 (Arr. G. Rost For Organ) - No. 5 In D Major 0:50
06. Preludes, Op. 28 (Arr. G. Rost For Organ) - No. 6 In B Minor 2:26
07. Preludes, Op. 28 (Arr. G. Rost For Organ) - No. 7 In A Major 0:50
08. Preludes, Op. 28 (Arr. G. Rost For Organ) - No. 8 In F Sharp Minor 2:09
09. Preludes, Op. 28 (Arr. G. Rost For Organ) - No. 9 In E Major 1:33
10. Preludes, Op. 28 (Arr. G. Rost For Organ) - No. 10 In C Sharp Minor 1:03
11. Preludes, Op. 28 (Arr. G. Rost For Organ) - No. 11 In B Major 1:03
12. Preludes, Op. 28 (Arr. G. Rost For Organ) - No. 12 In G Sharp Minor 1:31
13. Preludes, Op. 28 (Arr. G. Rost For Organ) - No. 13 In F Sharp Major 3:57
14. Preludes, Op. 28 (Arr. G. Rost For Organ) - No. 14 In E Flat Minor 0:52
15. Preludes, Op. 28 (Arr. G. Rost For Organ) - No. 15 In D Flat Major, "Raindrop" 8:55
16. Preludes, Op. 28 (Arr. G. Rost For Organ) - No. 16 In B Flat Minor 1:18
17. Preludes, Op. 28 (Arr. G. Rost For Organ) - No. 17 In A Flat Major 3:34
18. Preludes, Op. 28 (Arr. G. Rost For Organ) - No. 18 In F Minor 1:18
19. Preludes, Op. 28 (Arr. G. Rost For Organ) - No. 19 In E Flat Major 1:35
20. Preludes, Op. 28 (Arr. G. Rost For Organ) - No. 20 In C Minor 1:34
21. Preludes, Op. 28 (Arr. G. Rost For Organ) - No. 21 In B Flat Major 2:31
22. Preludes, Op. 28 (Arr. G. Rost For Organ) - No. 22 In G Minor 0:58
23. Preludes, Op. 28 (Arr. G. Rost For Organ) - No. 23 In F Major 1:22
24. Preludes, Op. 28 (Arr. G. Rost For Organ) - No. 24 In D Minor 3:02

Recorded November 10-13, 2010, Stiftsbasilika Kevelaer

In co-production with Deutschlandradio Kultur

 Frederic Chopin - Gunther Rost - 24 Preludes, Op.28 arranged for organ (2011) {Hybrid-SACD // EAC Rip}


Da ich kürzlich einen Auszug der "Rostschen Chopin-Préludes" im Konzert hören durfte, habe ich mir aus Neugier nun die CD gekauft. Ich muss sagen: ich bin beeindruckt. Dass diese Virtuosität auf der Orgel überhaupt möglich ist, ist schonmal beachtlich. Aber diese Orgel schlägt dann auch klanglich alles, was ich bisher gehört habe. Von einem butterweichen, schmeichelnden Sound bis hin zu größter Aggressivität - ich glaube zwar nicht, dass Chopin selbst "seine" Préludes mit solch espressiven Farbzeichnungen kannte, aber was spielt das für eine Rolle, wenn man - nach Tausenden von immer-neuen Klavierversionen - dadurch endlich einmal einen erfrischend anderen, dazu durchaus ernst zunehmenden Zugang zu diesem herrlichen Zyklus findet.
Das Booklet ist nett geschrieben, und beleuchtet erstaunlicherweise sogar historische Hintergründe für die Ausführung der Stücke auf der Orgel.
Ich für meinen Teil konnte die CD nicht ausschalten, bevor ich sie nicht zur Gänze durchgehört hatte!

Seifert-Orgel der Marienbasilika Kevelaer

Chopins 24 Préludes op. 28 stehen wie alle Zyklen dieser Zeit, die den Quintenzirkel systematisch durchschreiten, in der Tradition von J.S. Bach. Kein Wunder, dass dieses Werk besondere Anziehungskraft auf einen Organisten ausübt. Immer wieder wurden in der Vergangenheit Chopin-Préludes für die Orgel adaptiert und dabei teilweise stark verändert. Gunther Rost geht in seiner Einspielung einen anderen Weg. Er spielt den unveränderten Notentext der originalen Klavierversion, wobei er die Vielfalt der dynamischen Anweisungen mittels fantasievoller Registrierungen nachbildet. Das verwendete Instrument bietet dafür denkbar günstige Voraussetzungen: Die Seifert-Orgel der Marienbasilika von Kevelaer verfügt über 135 Register und ist damit die größte deutsch-romantische Orgel der Welt.

Gunther Rost setzt mit dieser Veröffentlichung seine Reihe von Orgeltranskriptionen fort, in der bereits eine Einspielung der Goldberg-Variationen sowie sechs Instrumentalkonzerte von Antonio Vivaldi erschienen.
 Frederic Chopin - Gunther Rost - 24 Preludes, Op.28 arranged for organ (2011) {Hybrid-SACD // EAC Rip}

// classical music \\
// all of my uploads \\
________________

Download:

FLAC
Artwork
________________