Subcategories

Christian Marc Gendron - Piano Man Experience (2017) {CMG Musique}

Posted By: shamanicus
Christian Marc Gendron - Piano Man Experience (2017) {CMG Musique}

Christian Marc Gendron - Piano Man Experience (2017)
EAC Rip | FLAC (tracks+.cue, log) | Covers | 258 mb | MP3 CBR 320kbps | RAR | 106 mb
Piano, Pop | Label: CMG Musique - CMG2-4400

Piano Man Experience is a concept show of the greatest songs that have marked history. The greatest hits of Elton John, Billy Joel, Jerry Lee Lewis, Ray Charles, Michael McDonald, Jamie Cullum, Claude Leveill, Michel Legrand. Also, the greatest songs ever written on the piano from the Beatles to Richard Marx, including Marc Cohn, Sarah MacLachlan, Stevie Wonder and many others.

Christian Marc Gendron - Piano Man Experience (2017) {CMG Musique}


Tracklist:

01. Christian Marc Gendron – Georgia on My Mind (03:17)
02. Christian Marc Gendron – Great Balls of Fire (01:55)
03. Christian Marc Gendron – Frédéric (03:06)
04. Manon Séguin – Je ne suis qu'une chanson (04:47)
05. Christian Marc Gendron – Je voudrais voir new york (03:24)
06. Christian Marc Gendron – It's Still Rock'n Roll to Me (02:50)
07. Manon Séguin – Angel (04:29)
08. Christian Marc Gendron – Walking in Memphis (04:02)
09. Christian Marc Gendron – Your Song (04:13)
10. Christian Marc Gendron – Saturday Night's Alright for Fighting (03:08)
11. Manon Séguin – Hallelujah (04:03)
12. Christian Marc Gendron – Piano Man (04:53)

Total length: 44:07

Christian Marc Gendron - Piano Man Experience (2017) {CMG Musique}


Exact Audio Copy V1.3 from 2. September 2016

EAC extraction logfile from 24. February 2017, 1:17

Christian Marc Gendron / Piano Man Experience

Used drive : ATAPI DVD A DH16AAL Adapter: 1 ID: 0

Read mode : Secure
Utilize accurate stream : Yes
Defeat audio cache : Yes
Make use of C2 pointers : No

Read offset correction : 6
Overread into Lead-In and Lead-Out : No
Fill up missing offset samples with silence : Yes
Delete leading and trailing silent blocks : No
Null samples used in CRC calculations : Yes
Used interface : Native Win32 interface for Win NT & 2000
Gap handling : Appended to previous track

Used output format : User Defined Encoder
Selected bitrate : 1024 kBit/s
Quality : High
Add ID3 tag : No
Command line compressor : C:\Program Files (x86)\Exact Audio Copy\Flac\flac.exe
Additional command line options : -8 -e -p -V -T "ARTIST=%artist%" -T "TITLE=%title%" -T "ALBUM=%albumtitle%" -T "DATE=%year%" -T "TRACKNUMBER=%tracknr%" -T "GENRE=%genre%" -T "PERFORMER=%albuminterpret%" -T "COMPOSER=%composer%" %haslyrics%–tag-from-file=LYRICS="%lyricsfile%"%haslyrics% -T "ALBUMARTIST=%albumartist%" -T "DISCNUMBER=%cdnumber%" -T "TOTALDISCS=%totalcds%" -T "TOTALTRACKS=%numtracks%" -T "COMMENT=%comment%" %source% -o %dest%


TOC of the extracted CD

Track | Start | Length | Start sector | End sector
––––––––––––––––––––––––––––-
1 | 0:00.00 | 3:17.33 | 0 | 14807
2 | 3:17.33 | 1:55.16 | 14808 | 23448
3 | 5:12.49 | 3:06.60 | 23449 | 37458
4 | 8:19.34 | 4:47.02 | 37459 | 58985
5 | 13:06.36 | 3:24.23 | 58986 | 74308
6 | 16:30.59 | 2:50.14 | 74309 | 87072
7 | 19:20.73 | 4:29.36 | 87073 | 107283
8 | 23:50.34 | 4:02.13 | 107284 | 125446
9 | 27:52.47 | 4:13.18 | 125447 | 144439
10 | 32:05.65 | 3:08.16 | 144440 | 158555
11 | 35:14.06 | 4:03.41 | 158556 | 176821
12 | 39:17.47 | 4:53.50 | 176822 | 198846


Track 1

Filename C:\Zelou\EAC Rips\Christian Marc Gendron - Piano Man Experience (2017) [FLAC] {CMG2-4400}\01 - Georgia On My Mind.wav

Pre-gap length 0:00:02.00

Peak level 99.2 %
Extraction speed 1.7 X
Track quality 100.0 %
Test CRC 8FCF3F51
Copy CRC 8FCF3F51
Track not present in AccurateRip database
Copy OK

Track 2

Filename C:\Zelou\EAC Rips\Christian Marc Gendron - Piano Man Experience (2017) [FLAC] {CMG2-4400}\02 - Great Balls Of Fire.wav

Peak level 90.6 %
Extraction speed 1.1 X
Track quality 99.9 %
Test CRC E38A29F4
Copy CRC E38A29F4
Track not present in AccurateRip database
Copy OK

Track 3

Filename C:\Zelou\EAC Rips\Christian Marc Gendron - Piano Man Experience (2017) [FLAC] {CMG2-4400}\03 - Frederic.wav

Peak level 98.6 %
Extraction speed 1.9 X
Track quality 100.0 %
Test CRC 2FAE9777
Copy CRC 2FAE9777
Track not present in AccurateRip database
Copy OK

Track 4

Filename C:\Zelou\EAC Rips\Christian Marc Gendron - Piano Man Experience (2017) [FLAC] {CMG2-4400}\04 - Je ne suis qu'une chanson.wav

Peak level 99.1 %
Extraction speed 2.2 X
Track quality 100.0 %
Test CRC 2E1C9238
Copy CRC 2E1C9238
Track not present in AccurateRip database
Copy OK

Track 5

Filename C:\Zelou\EAC Rips\Christian Marc Gendron - Piano Man Experience (2017) [FLAC] {CMG2-4400}\05 - Je voudrais voir New York.wav

Peak level 100.0 %
Extraction speed 2.3 X
Track quality 100.0 %
Test CRC CCCB1572
Copy CRC CCCB1572
Track not present in AccurateRip database
Copy OK

Track 6

Filename C:\Zelou\EAC Rips\Christian Marc Gendron - Piano Man Experience (2017) [FLAC] {CMG2-4400}\06 - It's Still Rock'n Roll To Me.wav

Peak level 100.0 %
Extraction speed 2.3 X
Track quality 100.0 %
Test CRC 590B1507
Copy CRC 590B1507
Track not present in AccurateRip database
Copy OK

Track 7

Filename C:\Zelou\EAC Rips\Christian Marc Gendron - Piano Man Experience (2017) [FLAC] {CMG2-4400}\07 - Angel.wav

Peak level 98.5 %
Extraction speed 2.7 X
Track quality 100.0 %
Test CRC 02B93B18
Copy CRC 02B93B18
Track not present in AccurateRip database
Copy OK

Track 8

Filename C:\Zelou\EAC Rips\Christian Marc Gendron - Piano Man Experience (2017) [FLAC] {CMG2-4400}\08 - Walking In Memphis.wav

Peak level 100.0 %
Extraction speed 2.8 X
Track quality 100.0 %
Test CRC BCA05A05
Copy CRC BCA05A05
Track not present in AccurateRip database
Copy OK

Track 9

Filename C:\Zelou\EAC Rips\Christian Marc Gendron - Piano Man Experience (2017) [FLAC] {CMG2-4400}\09 - Your Song.wav

Peak level 100.0 %
Extraction speed 2.9 X
Track quality 100.0 %
Test CRC 8268B23D
Copy CRC 8268B23D
Track not present in AccurateRip database
Copy OK

Track 10

Filename C:\Zelou\EAC Rips\Christian Marc Gendron - Piano Man Experience (2017) [FLAC] {CMG2-4400}\10 - Saturday Night's Alright For Fighting.wav

Peak level 94.0 %
Extraction speed 2.0 X
Track quality 99.9 %
Test CRC 62AF77CB
Copy CRC 62AF77CB
Track not present in AccurateRip database
Copy OK

Track 11

Filename C:\Zelou\EAC Rips\Christian Marc Gendron - Piano Man Experience (2017) [FLAC] {CMG2-4400}\11 - Hallelujah.wav

Peak level 98.6 %
Extraction speed 3.1 X
Track quality 100.0 %
Test CRC C5EC6909
Copy CRC C5EC6909
Track not present in AccurateRip database
Copy OK

Track 12

Filename C:\Zelou\EAC Rips\Christian Marc Gendron - Piano Man Experience (2017) [FLAC] {CMG2-4400}\12 - Piano Man.wav

Peak level 98.8 %
Extraction speed 3.3 X
Track quality 100.0 %
Test CRC FB1E7522
Copy CRC FB1E7522
Track not present in AccurateRip database
Copy OK


None of the tracks are present in the AccurateRip database

No errors occurred

End of status report

–– CUETools DB Plugin V2.1.6

[CTDB TOCID: KDSZvQeOvvObNkQOeD6PVYo_.hw-] disk not present in database
Submit result: KDSZvQeOvvObNkQOeD6PVYo_.hw- has been uploaded


==== Log checksum FE67657F5C208E8FC57F3F74E40A49DA4CCCF8A05E4519A63436E60B39EB6141 ====


Thanks to the Original customer.