Subcategories

Christian Willisohn - Heart Broken Man {1996}

Posted By: luckburz
Christian Willisohn - Heart Broken Man {1996}

Christian Willisohn - Heart Broken Man
EAC+LOG+CUE | FLAC: 317 MB | Full Artwork | 5% Recovery Info
Label/Cat#: Blues Beacon # BLU-1026 2 | Country/Year: Germany 1996
Genre: Blues | Style: Piano Blues

MD5 [X] CUE [X] LOG [X] INFO TEXT [X] ARTWORK [X]

selfrip [X] not my rip []

Exact Audio Copy V1.0 beta 3 from 29. August 2011

EAC extraction logfile from 20. September 2012, 16:08

Christian Willisohn / Heart Broken Man

Used drive : PIONEER BD-RW BDR-206 Adapter: 0 ID: 2

Read mode : Secure
Utilize accurate stream : Yes
Defeat audio cache : Yes
Make use of C2 pointers : No

Read offset correction : 667
Overread into Lead-In and Lead-Out : No
Fill up missing offset samples with silence : Yes
Delete leading and trailing silent blocks : No
Null samples used in CRC calculations : Yes
Used interface : Native Win32 interface for Win NT & 2000

Used output format : User Defined Encoder
Selected bitrate : 1024 kBit/s
Quality : High
Add ID3 tag : Yes
Command line compressor : C:\Program Files\FLAC\flac.exe
Additional command line options : -5 -T "Artist=%artist%" -T "Title=%title%" -T "Album=%albumtitle%" -T "Date=%year%" -T "Tracknumber=%tracknr%" -T "Genre=%genre%" %source% -o %dest%


TOC of the extracted CD

Track | Start | Length | Start sector | End sector
––––––––––––––––––––––––––––-
1 | 0:00.00 | 4:05.52 | 0 | 18426
2 | 4:05.52 | 5:18.70 | 18427 | 42346
3 | 9:24.47 | 4:48.43 | 42347 | 63989
4 | 14:13.15 | 4:01.22 | 63990 | 82086
5 | 18:14.37 | 3:45.15 | 82087 | 98976
6 | 21:59.52 | 5:41.38 | 98977 | 124589
7 | 27:41.15 | 5:02.22 | 124590 | 147261
8 | 32:43.37 | 3:56.15 | 147262 | 164976
9 | 36:39.52 | 7:44.25 | 164977 | 199801
10 | 44:24.02 | 4:38.35 | 199802 | 220686
11 | 49:02.37 | 3:12.55 | 220687 | 235141
12 | 52:15.17 | 5:18.38 | 235142 | 259029


Range status and errors

Selected range

Filename F:\=== VINYL RIPS ===\=== EAC===\X FRESH RIP\Christian Willisohn - Heart Broken Man.wav

Peak level 94.4 %
Extraction speed 1.8 X
Range quality 100.0 %
Copy CRC 538F5497
Copy OK

No errors occurred


AccurateRip summary

Track 1 cannot be verified as accurate (confidence 3) [1517D4BE], AccurateRip returned [5F1966A9] (AR v2)
Track 2 cannot be verified as accurate (confidence 3) [0FF89FFD], AccurateRip returned [8B6CFCE3] (AR v2)
Track 3 cannot be verified as accurate (confidence 3) [DCA40D67], AccurateRip returned [F622C4A1] (AR v2)
Track 4 cannot be verified as accurate (confidence 3) [D4472359], AccurateRip returned [8088FB02] (AR v2)
Track 5 cannot be verified as accurate (confidence 3) [8831D21D], AccurateRip returned [BD190815] (AR v2)
Track 6 cannot be verified as accurate (confidence 3) [B707001F], AccurateRip returned [7BE4D3D3] (AR v2)
Track 7 cannot be verified as accurate (confidence 3) [7675DA8E], AccurateRip returned [F8ECAC6F] (AR v2)
Track 8 cannot be verified as accurate (confidence 3) [A60AD180], AccurateRip returned [097B9C0F] (AR v2)
Track 9 cannot be verified as accurate (confidence 3) [7FBD671E], AccurateRip returned [6044E19C] (AR v2)
Track 10 cannot be verified as accurate (confidence 3) [8DE00022], AccurateRip returned [88A4322E] (AR v2)
Track 11 cannot be verified as accurate (confidence 3) [36D484CB], AccurateRip returned [5006AA51] (AR v2)
Track 12 cannot be verified as accurate (confidence 3) [30847A32], AccurateRip returned [EBBE9071] (AR v2)

No tracks could be verified as accurate
You may have a different pressing from the one(s) in the database

End of status report

–– CUETools DB Plugin V2.1.3

[CTDB TOCID: y9ZlGsLSQkudRvNPcIBiAhBJNCM-] found, Submit result: y9ZlGsLSQkudRvNPcIBiAhBJNCM- has been confirmed
[5aab17fa] (1/1) Accurately ripped


==== Log checksum 4183768DD9DA9D00319BEF0CF7D931D1063BD08C1B99A24B26AAE46AB3BA0EFD ====

foobar2000 1.1.14a / Dynamic Range Meter 1.1.1
log date: 2012-11-05 19:17:55

––––––––––––––––––––––––––––––––––––––––
Analyzed: Christian Willisohn / Heart Broken Man
––––––––––––––––––––––––––––––––––––––––

DR Peak RMS Duration Track
––––––––––––––––––––––––––––––––––––––––
DR13 -0.50 dB -15.46 dB 4:06 01-A Girl Like You
DR13 -0.50 dB -17.83 dB 5:19 02-Heart Broken Man
DR11 -0.50 dB -13.46 dB 4:49 03-Congo Square
DR11 -0.50 dB -13.24 dB 4:01 04-Raven
DR11 -0.70 dB -13.50 dB 3:45 05-New York City
DR13 -0.50 dB -17.86 dB 5:42 06-Funeral
DR14 -0.50 dB -16.66 dB 5:02 07-Unauthentic Blues
DR11 -0.50 dB -13.30 dB 3:56 08-Macho Man
DR12 -0.50 dB -15.18 dB 7:44 09-Drown In My Own Tears
DR10 -0.50 dB -12.77 dB 4:38 10-On The Bayou
DR10 -0.50 dB -13.24 dB 3:13 11-Little Voodoo Baby
DR13 -0.50 dB -15.61 dB 5:19 12-The Man In Your Life
––––––––––––––––––––––––––––––––––––––––

Number of tracks: 12
Official DR value: DR12

Samplerate: 44100 Hz
Channels: 2
Bits per sample: 16
Bitrate: 770 kbps
Codec: FLAC
================================================================================



CD Info:

Christian Willisohn - Heart Brokem Man

Label: Blues Beacon, Enja Records
Catalog#: BLU-1026 2
Format: CD, Album
Country: Germany
Released: 1996
Genre: Blues

Tracklist:

1 - A Girl Like You 4:06
2 - Heart Broken Man 5:19
3 - Congo Square 4:49
4 - Raven 4:01
5 - New York City 3:45
6 - Funeral 5:42
7 - Unauthentic Blues 5:02
8 - Macho Man 3:56
9 - Drown In My Own Tears 7:44
10 - On The Bayou 4:38
11 - Little Voodoo Baby 3:13
12 - The Man In Your Life 5:19

Christian Willisohn - Heart Broken Man {1996}


Christian Willisohn (* 22. Januar 1962 in München) ist ein deutscher Blues-Pianist und Sänger.
Seine musikalische Laufbahn begann 1980 in Münchener Clubs; 1986 gab er seinen Beruf als Bildhauer auf. 1987 spielte er mit Zora Young zum ersten Mal in den USA. Seither spielte er mit vielen internationalen Blues-Musikern. Heute tritt er in ganz Europa auf mit Klassikern und Eigenkompositionen mit Texten seiner Frau, Alexandra Mayer.
1988 begann die anwährende Zusammenarbeit mit Lillian Boutté, 1992 mit dem holländischen Saxophonisten Boris Vanderlek. 1995 produzierte er zusammen mit Prof. Herbert Wiedemann von der HdK Berlin ein Lehrbuch für Blues & Boogie-Piano. 1996 gründete er mit dem Klavierbaumeister Rainer Schmidt das Label Art By Heart. Konzertreisen auf der „Sea Cloud II“ 2008 von Hamburg nach St. Petersburg, 2009 von Neapel nach Venedig. Herbst 2010: Die Band “Southern Spirit” formiert sich um ihn neu mit Boris van der Lek (saxophone), Titus Vollmer (guitar, vocal); Peter Kraus (drums, vocal), Matthias Engelhardt (bass). wikipedia
Christian Willisohn - Heart Broken Man {1996}

// classical music \\
// all of my uploads \\
________________

Download:

FLAC
Artwork
________________