Subcategories

Chumbawamba - English Rebel Songs 1381-1914 [Virgin 840 906 2] {1988, ReIssue 1994} (Repost)

Posted By: luckburz
Chumbawamba - English Rebel Songs 1381-1914 [Virgin 840 906 2] {1988, ReIssue 1994} (Repost)

Chumbawamba - English Rebel Songs 1381-1914
EAC+LOG,no CUE | FLAC tracks: 148 MB | Artwork | 5% Recovery Info
Label/Cat#: Virgin # 840 906 2 | Country/Year: Germany 1994
Genre: Rock, Folk | Style: English Folk, Political Songs

MD5 [X] CUE [] LOG [X] INFO TEXT [X] ARTWORK [X]

selfrip [] not my rip [X]

Chumbawamba - English Rebel Songs 1381-1914 [Virgin 840 906 2] {1988, ReIssue 1994} (Repost)


Exact Audio Copy V0.99 prebeta 4 from 23. January 2008

EAC extraction logfile from 4. June 2009, 12:35

Chumbawamba / English Rebel Songs 1381-1914

Used drive : PIONEER DVD-RW DVR-212 Adapter: 3 ID: 0

Read mode : Secure
Utilize accurate stream : Yes
Defeat audio cache : Yes
Make use of C2 pointers : No

Read offset correction : 48
Overread into Lead-In and Lead-Out : No
Fill up missing offset samples with silence : Yes
Delete leading and trailing silent blocks : No
Null samples used in CRC calculations : No
Used interface : Native Win32 interface for Win NT & 2000
Gap handling : Appended to previous track

Used output format : Internal WAV Routines
Sample format : 44.100 Hz; 16 Bit; Stereo


TOC of the extracted CD

Track | Start | Length | Start sector | End sector
––––––––––––––––––––––––––––-
1 | 0:00.32 | 0:52.28 | 32 | 3959
2 | 0:52.60 | 3:29.47 | 3960 | 19681
3 | 4:22.32 | 2:31.10 | 19682 | 31016
4 | 6:53.42 | 3:00.58 | 31017 | 44574
5 | 9:54.25 | 1:48.32 | 44575 | 52706
6 | 11:42.57 | 3:00.20 | 52707 | 66226
7 | 14:43.02 | 2:25.03 | 66227 | 77104
8 | 17:08.05 | 1:20.00 | 77105 | 83104
9 | 18:28.05 | 3:13.52 | 83105 | 97631
10 | 21:41.57 | 2:50.53 | 97632 | 110434
11 | 24:32.35 | 2:07.07 | 110435 | 119966
12 | 26:39.42 | 0:49.55 | 119967 | 123696


Track 1

Filename J:\extract\Chumbawamba - English Rebel Songs 1381-1914 [1994]\01 The Cutty Wren.wav

Pre-gap length 0:00:02.32

Peak level 72.7 %
Track quality 100.0 %
Copy CRC D89B13C1
Accurately ripped (confidence 6) [87DB59E0]
Copy OK

Track 2

Filename J:\extract\Chumbawamba - English Rebel Songs 1381-1914 [1994]\02 The Diggers Song.wav

Pre-gap length 0:00:00.60

Peak level 68.8 %
Track quality 100.0 %
Copy CRC B199A74D
Accurately ripped (confidence 6) [83DAC30C]
Copy OK

Track 3

Filename J:\extract\Chumbawamba - English Rebel Songs 1381-1914 [1994]\03 Colliers' March.wav

Pre-gap length 0:00:01.67

Peak level 53.1 %
Track quality 100.0 %
Copy CRC 0E8C0FA3
Accurately ripped (confidence 6) [8C156E53]
Copy OK

Track 4

Filename J:\extract\Chumbawamba - English Rebel Songs 1381-1914 [1994]\04 The Triumph of General Ludd.wav

Pre-gap length 0:00:02.00

Peak level 63.8 %
Track quality 100.0 %
Copy CRC CA5882DD
Accurately ripped (confidence 6) [D9D6612D]
Copy OK

Track 5

Filename J:\extract\Chumbawamba - English Rebel Songs 1381-1914 [1994]\05 Chartist Anthem.wav

Pre-gap length 0:00:01.40

Peak level 57.1 %
Track quality 100.0 %
Copy CRC 4A9BF48B
Accurately ripped (confidence 6) [EC77D4C5]
Copy OK

Track 6

Filename J:\extract\Chumbawamba - English Rebel Songs 1381-1914 [1994]\06 Song on the Times.wav

Pre-gap length 0:00:02.60

Peak level 75.7 %
Track quality 100.0 %
Copy CRC 1656228E
Accurately ripped (confidence 6) [A1A93D09]
Copy OK

Track 7

Filename J:\extract\Chumbawamba - English Rebel Songs 1381-1914 [1994]\07 Smashing of the Van.wav

Pre-gap length 0:00:02.05

Peak level 63.1 %
Track quality 100.0 %
Copy CRC 38C32EBB
Accurately ripped (confidence 6) [F93AA6F6]
Copy OK

Track 8

Filename J:\extract\Chumbawamba - English Rebel Songs 1381-1914 [1994]\08 World Turned Upside Down.wav

Pre-gap length 0:00:01.30

Peak level 42.2 %
Track quality 99.8 %
Copy CRC 9F68A640
Accurately ripped (confidence 6) [B478FA15]
Copy OK

Track 9

Filename J:\extract\Chumbawamba - English Rebel Songs 1381-1914 [1994]\09 Poverty Knock.wav

Pre-gap length 0:00:01.48

Peak level 58.6 %
Track quality 100.0 %
Copy CRC 6BF9A36C
Accurately ripped (confidence 6) [4843F961]
Copy OK

Track 10

Filename J:\extract\Chumbawamba - English Rebel Songs 1381-1914 [1994]\10 Idris Strike Song.wav

Pre-gap length 0:00:02.12

Peak level 59.7 %
Track quality 100.0 %
Copy CRC 3D64F897
Accurately ripped (confidence 6) [05DB63F8]
Copy OK

Track 11

Filename J:\extract\Chumbawamba - English Rebel Songs 1381-1914 [1994]\11 Hanging on the Old Barbed Wire.wav

Pre-gap length 0:00:00.48

Peak level 64.9 %
Track quality 100.0 %
Copy CRC 77C62A1C
Accurately ripped (confidence 6) [3DA00906]
Copy OK

Track 12

Filename J:\extract\Chumbawamba - English Rebel Songs 1381-1914 [1994]\12 The Cutty Wren II.wav

Pre-gap length 0:00:02.40

Peak level 58.5 %
Track quality 100.0 %
Copy CRC 13BF8C07
Accurately ripped (confidence 5) [21673E72]
Copy OK


All tracks accurately ripped

No errors occurred

End of status report

auCDtect: CD records authenticity detector, version 0.8.2
Copyright © 2004 Oleg Berngardt. All rights reserved.
Copyright © 2004 Alexander Djourik. All rights reserved.

Detect mode (0..40 with 0 = most accurate): 8 (default)


––––––––––––––––––––––––––––––
[01 The Cutty Wren.wav]
Detected average hi-boundary frequency: 2.030590e+004 Hz
Detected average lo-boundary frequency: 1.546568e+004 Hz
Detected average hi-cut frequency: 2.170984e+004 Hz
Detected average lo-cut frequency: 1.246183e+004 Hz
Maximum probablis boundary frequency: 2.192300e+004 Hz
Coefficient of nonlinearity of a phase: 1.138299e+000
First order smothness: 4.098361e-001
Second order smothness: 6.885246e-001
––––––––––––––––––––––––––––––
This track looks like CDDA with probability 100%.

––––––––––––––––––––––––––––––
[02 The Diggers Song.wav]
Detected average hi-boundary frequency: 2.055785e+004 Hz
Detected average lo-boundary frequency: 1.631154e+004 Hz
Detected average hi-cut frequency: 2.181624e+004 Hz
Detected average lo-cut frequency: 1.212510e+004 Hz
Maximum probablis boundary frequency: 2.189100e+004 Hz
Coefficient of nonlinearity of a phase: 8.051592e-001
First order smothness: 4.701195e-001
Second order smothness: 6.015936e-001
––––––––––––––––––––––––––––––
This track looks like CDDA with probability 100%.

––––––––––––––––––––––––––––––
[03 Colliers' March.wav]
Detected average hi-boundary frequency: 2.023242e+004 Hz
Detected average lo-boundary frequency: 1.254569e+004 Hz
Detected average hi-cut frequency: 2.183809e+004 Hz
Detected average lo-cut frequency: 1.524708e+004 Hz
Maximum probablis boundary frequency: 2.189100e+004 Hz
Coefficient of nonlinearity of a phase: 1.107025e+000
First order smothness: 3.922652e-001
Second order smothness: 7.182320e-001
––––––––––––––––––––––––––––––
This track looks like CDDA with probability 100%.

––––––––––––––––––––––––––––––
[04 The Triumph of General Ludd.wav]
Detected average hi-boundary frequency: 2.030465e+004 Hz
Detected average lo-boundary frequency: 1.446858e+004 Hz
Detected average hi-cut frequency: 2.174245e+004 Hz
Detected average lo-cut frequency: 1.128654e+004 Hz
Maximum probablis boundary frequency: 2.189100e+004 Hz
Coefficient of nonlinearity of a phase: 8.992447e-001
First order smothness: 3.824885e-001
Second order smothness: 6.635945e-001
––––––––––––––––––––––––––––––
This track looks like CDDA with probability 100%.

––––––––––––––––––––––––––––––
[05 Chartist Anthem.wav]
Detected average hi-boundary frequency: 2.079300e+004 Hz
Detected average lo-boundary frequency: 1.569175e+004 Hz
Detected average hi-cut frequency: 2.178155e+004 Hz
Detected average lo-cut frequency: 1.035032e+004 Hz
Maximum probablis boundary frequency: 2.191300e+004 Hz
Coefficient of nonlinearity of a phase: 1.143920e+000
First order smothness: 3.692308e-001
Second order smothness: 6.769231e-001
––––––––––––––––––––––––––––––
This track looks like CDDA with probability 100%.

––––––––––––––––––––––––––––––
[06 Song on the Times.wav]
Detected average hi-boundary frequency: 2.060966e+004 Hz
Detected average lo-boundary frequency: 1.450740e+004 Hz
Detected average hi-cut frequency: 2.180182e+004 Hz
Detected average lo-cut frequency: 1.236468e+004 Hz
Maximum probablis boundary frequency: 2.189100e+004 Hz
Coefficient of nonlinearity of a phase: 1.122287e+000
First order smothness: 3.888889e-001
Second order smothness: 6.990741e-001
––––––––––––––––––––––––––––––
This track looks like CDDA with probability 100%.

––––––––––––––––––––––––––––––
[07 Smashing of the Van.wav]
Detected average hi-boundary frequency: 2.048684e+004 Hz
Detected average lo-boundary frequency: 1.540249e+004 Hz
Detected average hi-cut frequency: 2.168958e+004 Hz
Detected average lo-cut frequency: 1.242963e+004 Hz
Maximum probablis boundary frequency: 2.174600e+004 Hz
Coefficient of nonlinearity of a phase: 8.756217e-001
First order smothness: 4.310345e-001
Second order smothness: 6.954023e-001
––––––––––––––––––––––––––––––
This track looks like CDDA with probability 100%.

––––––––––––––––––––––––––––––
[08 World Turned Upside Down.wav]
Detected average hi-boundary frequency: 2.014431e+004 Hz
Detected average lo-boundary frequency: 1.383215e+004 Hz
Detected average hi-cut frequency: 2.177703e+004 Hz
Detected average lo-cut frequency: 1.407367e+004 Hz
Maximum probablis boundary frequency: 2.190700e+004 Hz
Coefficient of nonlinearity of a phase: 1.226942e+000
First order smothness: 4.148936e-001
Second order smothness: 7.127660e-001
––––––––––––––––––––––––––––––
This track looks like CDDA with probability 100%.

––––––––––––––––––––––––––––––
[09 Poverty Knock.wav]
Detected average hi-boundary frequency: 2.062984e+004 Hz
Detected average lo-boundary frequency: 1.477304e+004 Hz
Detected average hi-cut frequency: 2.169239e+004 Hz
Detected average lo-cut frequency: 1.215041e+004 Hz
Maximum probablis boundary frequency: 2.189100e+004 Hz
Coefficient of nonlinearity of a phase: 9.912867e-001
First order smothness: 4.112554e-001
Second order smothness: 5.064935e-001
––––––––––––––––––––––––––––––
This track looks like CDDA with probability 100%.

––––––––––––––––––––––––––––––
[10 Idris Strike Song.wav]
Detected average hi-boundary frequency: 2.020260e+004 Hz
Detected average lo-boundary frequency: 1.548031e+004 Hz
Detected average hi-cut frequency: 2.174945e+004 Hz
Detected average lo-cut frequency: 1.385903e+004 Hz
Maximum probablis boundary frequency: 2.189100e+004 Hz
Coefficient of nonlinearity of a phase: 1.166223e+000
First order smothness: 3.951220e-001
Second order smothness: 7.121951e-001
––––––––––––––––––––––––––––––
This track looks like CDDA with probability 100%.

––––––––––––––––––––––––––––––
[11 Hanging on the Old Barbed Wire.wav]
Detected average hi-boundary frequency: 2.045751e+004 Hz
Detected average lo-boundary frequency: 1.462856e+004 Hz
Detected average hi-cut frequency: 2.176520e+004 Hz
Detected average lo-cut frequency: 1.262549e+004 Hz
Maximum probablis boundary frequency: 2.189100e+004 Hz
Coefficient of nonlinearity of a phase: 1.227974e+000
First order smothness: 3.398693e-001
Second order smothness: 6.928105e-001
––––––––––––––––––––––––––––––
This track looks like CDDA with probability 100%.

––––––––––––––––––––––––––––––
[12 The Cutty Wren II.wav]
Detected average hi-boundary frequency: 2.008658e+004 Hz
Detected average lo-boundary frequency: 1.514196e+004 Hz
Detected average hi-cut frequency: 2.173190e+004 Hz
Detected average lo-cut frequency: 1.156495e+004 Hz
Maximum probablis boundary frequency: 2.190700e+004 Hz
Coefficient of nonlinearity of a phase: 1.326509e+000
First order smothness: 3.833333e-001
Second order smothness: 7.166667e-001
––––––––––––––––––––––––––––––
This track looks like CDDA with probability 100%.

foobar2000 1.1.14a / Dynamic Range Meter 1.1.1
log date: 2013-01-22 14:28:44

––––––––––––––––––––––––––––––––––––––––
Analyzed: Chumbawamba / English Rebel Songs 1381-1914
––––––––––––––––––––––––––––––––––––––––

DR Peak RMS Duration Track
––––––––––––––––––––––––––––––––––––––––
DR10 -2.76 dB -19.34 dB 0:52 01-The Cutty Wren
DR12 -3.24 dB -16.43 dB 3:30 02-The Diggers Song
DR12 -5.49 dB -19.77 dB 2:31 03-Colliers' March
DR11 -3.90 dB -17.21 dB 3:01 04-The Triumph of General Ludd
DR11 -4.86 dB -17.72 dB 1:48 05-Chartist Anthem
DR11 -2.42 dB -17.35 dB 3:00 06-Song on the Times
DR13 -4.00 dB -19.51 dB 2:25 07-Smashing of the Van
DR11 -7.49 dB -21.41 dB 1:20 08-World Turned Upside Down
DR11 -4.63 dB -17.80 dB 3:14 09-Poverty Knock
DR12 -4.48 dB -18.79 dB 2:51 10-Idris Strike Song
DR11 -3.75 dB -17.94 dB 2:07 11-Hanging on the Old Barbed Wire
DR11 -4.65 dB -19.32 dB 0:50 12-The Cutty Wren II
––––––––––––––––––––––––––––––––––––––––

Number of tracks: 12
Official DR value: DR11

Samplerate: 44100 Hz
Channels: 2
Bits per sample: 16
Bitrate: 751 kbps
Codec: FLAC
================================================================================



CD Info:

Chumbawamba - English Rebel Songs 1381-1914

Label: Virgin Schallplatten GmbH, One Little Indian
Catalog#: 840 906 2, 840 906 2
Format: CD, Album
Country: Germany
Released: 1994
Genre: Rock
Style: Folk Rock
Notes:

A collection of English folk songs.

Recorded Woodlands Studio, April 1988

Alice Nutter was otherwise engaged
Dunst was reading football fanzines

The Cutty Wren is on the CD a second time as the unlisted 12th track.

Tracklisting:

1 The Cutty Wren
2 The Diggers Song
3 Colliers March
4 The Triumph Of General Ludd
5 Chartist Anthem
6 Song On The Times
7 Smashing Of The Van
8 World Turned Upside Down
9 Poverty Knock
10 Idris Strike Song
11 Hanging On The Old Barbed Wire
12 The Cutty Wren

Chumbawamba - English Rebel Songs 1381-1914 [Virgin 840 906 2] {1988, ReIssue 1994} (Repost)


review by Chris Nickson

When Chumbawamba recorded the first version of English Rebel Songs 1391-1914 in 1988, it was a very unusual step for a band of anarcho-punks. After all, a bunch of unaccompanied traditional folk songs was in direct contrast to the loud noise of electric music. But the album spoke very eloquently, showing the band was committed to learning – and disseminating teaching – from history. (…) Additionally, the use of folk samples on Readymades has increased their folk credibility (which should never have been in doubt in the first place). And the songs remain utterly relevant – anthems of the downtrodden and oppressed through the ages, from the 14th century to today and the miners' strike of 1984. The songs actually range from real folk pieces, like "The Cutty Wren" with its potent political symbolism, to music hall ("Idris Strike Song") and the cynical marching pieces of soldiers ("Hanging on the Old Barbed Wire"). (…) Putting this album in the public's gaze again is doing everyone a service.
Chumbawamba - English Rebel Songs 1381-1914 [Virgin 840 906 2] {1988, ReIssue 1994} (Repost)
allmusic

Thanks to carrak!
Chumbawamba - English Rebel Songs 1381-1914 [Virgin 840 906 2] {1988, ReIssue 1994} (Repost)

// classical music \\
// all of my uploads \\
________________

Download:
Filepost FLAC+ART

________________