Subcategories

Chumbawamba & Credit to the Nation - Enough Is Enough [One Little Indian 79TP7CD] {1993} (Reuploaded)

Posted By: luckburz
Chumbawamba & Credit to the Nation - Enough Is Enough [One Little Indian 79TP7CD] {1993} (Reuploaded)

Chumbawamba & Credit to the Nation - Enough Is Enough
EAC+LOG+CUE | FLAC: 97 MB | Full Artwork | 5% Recovery Info
Label/Cat#: One Little Indian # 79TP7CD | Country/Year: UK 1993
Genre: Rock, Folk, Rap | Style: Crossover, Political Song

MD5 [X] CUE [X] LOG [X] INFO TEXT [X] ARTWORK [X]

selfrip [X] not my rip []

Chumbawamba & Credit to the Nation - Enough Is Enough [One Little Indian 79TP7CD] {1993} (Reuploaded)


Exact Audio Copy V1.0 beta 2 from 29. April 2011

EAC extraction logfile from 9. October 2011, 20:19

Chumbawamba & Credit to the Nation / Enough Is Enough

Used drive : HL-DT-STDVDRAM GSA-H12L Adapter: 0 ID: 0

Read mode : Secure
Utilize accurate stream : Yes
Defeat audio cache : Yes
Make use of C2 pointers : No

Read offset correction : 667
Overread into Lead-In and Lead-Out : No
Fill up missing offset samples with silence : Yes
Delete leading and trailing silent blocks : No
Null samples used in CRC calculations : Yes
Used interface : Native Win32 interface for Win NT & 2000

Used output format : User Defined Encoder
Selected bitrate : 896 kBit/s
Quality : High
Add ID3 tag : No
Command line compressor : C:\Program Files\FLAC\flac.exe
Additional command line options : -5 -T "Artist=%artist%" -T "Title=%title%" -T "Album=%albumtitle%" -T "Date=%year%" -T "Tracknumber=%tracknr%" -T "Genre=%genre%" %source% -o %dest%


TOC of the extracted CD

Track | Start | Length | Start sector | End sector
––––––––––––––––––––––––––––-
1 | 0:00.00 | 4:35.60 | 0 | 20684
2 | 4:35.60 | 4:19.40 | 20685 | 40149
3 | 8:55.25 | 2:37.73 | 40150 | 51997


Range status and errors

Selected range

Filename I:\=== VINYL RIPS ===\=== EAC===\Chumbawamba & Credit to the Nation - Enough Is Enough.wav

Peak level 100.0 %
Extraction speed 5.6 X
Range quality 100.0 %
Test CRC 62503F14
Copy CRC 62503F14
Copy OK

No errors occurred


AccurateRip summary

Track 1 accurately ripped (confidence 7) [A079876F] (AR v1)
Track 2 accurately ripped (confidence 6) [E6E131BB] (AR v1)
Track 3 accurately ripped (confidence 6) [F66B7BA6] (AR v1)

All tracks accurately ripped

End of status report

==== Log checksum 5AB7DA638CB32C1DB0645168E51101DCE12F55ECA2C5C7A81613D79D1B633B7C ====

–––––––––––––––––––––––––––––––––––––––––––––––
Analyzed folder: I:\=== VINYL RIPS ===\=== EAC===\Chumbawamba & Credit to the Nation - Enough Is Enough\
–––––––––––––––––––––––––––––––––––––––––––––––
DR Peak RMS Filename
–––––––––––––––––––––––––––––––––––––––––––––––

DR13 -0.00 dB -15.51 dB Chumbawamba & Credit to the Nation - Enough Is Enough.wav
–––––––––––––––––––––––––––––––––––––––––––––––

Number of files: 1
Official DR value: DR13

==============================================================================================


CD Info:

Chumbawamba & Credit To The Nation – Enough Is Enough

Label: One Little Indian
Catalog#: 79TP7CD
Format: CD, Single
Country: UK
Released: 1993
Genre: Rock
Style: Indie Rock

Tracklist:

1 Enough Is Enough 4:35
2 Hear No Bullshit (On Fire Mix) 4:20
3 The Day The Nazi Died (1993 Mix) 2:38

Credits:

Artwork By [Cover Design] – Baader Meinhof
Engineer – Neil Ferguson
Producer – Chumbawamba, Credit To The Nation
Written-By, Arranged By – Chumbawamba, Matthew David Hanson

Notes:

Comes in standard slimline CD single case with insert.

Recorded June 1993 at Woodlands Studio Castleford. "Hear No Bullshit" originally recorded at Orinoco London.
Made in England.

Barcode and Other Identifiers:

Barcode (Printed): 5 016958 020026 >
Barcode (Scanned): 5016958020026

Discogs Url: http://www.discogs.com/Chumbawamba-Credit-To-The-Nation-Enough-Is-Enough/release/472631

Enough Is Enough is an anti-fascism single from Chumbawamba & Credit to the Nation, on Chumbawamba's album Anarchy. It reached #56 on UK Charts in 1993 and was supported by a music video, which can be seen here.

The b-side, "Hear No Bullshit (On Fire Mix)", is a remix of the Credit to the Nation single "Hear No Bullshit See No Bullshit Say No Bullshit" released the same year, and samples Chumbawamba's Song "Mouthful of Shit" from their album Anarchy.

In July 2000, the band gave away a one-track CD of a remix of the song featuring new topical lyrics, called "Enough Is Enough (Kick It Over)", at their shows in Austria. This was following the formation of a coalition parliament led by (now-deceased) Austrian politician and Nazi apologist Joerg Haider, leader of the nationalist conservative BZÖ and FPÖ parties. Incidentally, later that year he stepped down from direct control of the party due to international pressure. wikipedia

More Chumbawamba:

Chumbawamba - English Rebel Songs 1381-1914 [Virgin 840 906 2] {1988, ReIssue 1994}

Chumbawamba & Credit to the Nation - Enough Is Enough [One Little Indian 79TP7CD] {1993} (Reuploaded)

// classical music \\
// all of my uploads \\
________________

Download:

Filepost FLAC + ART
________________