Subcategories

Chumbawamba - Readymades ...And Then Some [Koch KOC-CD-8667] {US 2003} (Reuploaded)

Posted By: luckburz
Chumbawamba - Readymades ...And Then Some [Koch KOC-CD-8667] {US 2003} (Reuploaded)

Doughboys - Crush
FLAC, EAC, LOG & CUE | Lossless Artwork | Size: 395 MB
Label/Cat#: A&M 31454 0124 2 | Country/Year: Canada 1993
Genre: Rock, Folk | Style: Folk Rock, Political Song

MD5 [X] CUE [X] LOG [X] INFO TEXT [] ARTWORK [X]

selfrip [X] not my rip []

Exact Audio Copy V0.99 prebeta 4 from 23. January 2008

EAC extraction logfile from 15. March 2008, 13:06

Chumbawamba / Readymades …An Then Some CD1

Used drive : HL-DT-STDVDRAM GSA-H12L Adapter: 0 ID: 1

Read mode : Secure
Utilize accurate stream : Yes
Defeat audio cache : No
Make use of C2 pointers : No

Read offset correction : 667
Overread into Lead-In and Lead-Out : No
Fill up missing offset samples with silence : Yes
Delete leading and trailing silent blocks : No
Null samples used in CRC calculations : Yes
Used interface : Native Win32 interface for Win NT & 2000
Gap handling : Appended to previous track

Used output format : Internal WAV Routines
Sample format : 44.100 Hz; 16 Bit; Stereo


TOC of the extracted CD

Track | Start | Length | Start sector | End sector
––––––––––––––––––––––––––––-
1 | 0:00.00 | 4:28.33 | 0 | 20132
2 | 4:28.33 | 3:22.32 | 20133 | 35314
3 | 7:50.65 | 4:15.53 | 35315 | 54492
4 | 12:06.43 | 3:56.44 | 54493 | 72236
5 | 16:03.12 | 4:42.28 | 72237 | 93414
6 | 20:45.40 | 4:02.24 | 93415 | 111588
7 | 24:47.64 | 3:36.46 | 111589 | 127834
8 | 28:24.35 | 3:45.31 | 127835 | 144740
9 | 32:09.66 | 4:18.51 | 144741 | 164141
10 | 36:28.42 | 4:03.06 | 164142 | 182372
11 | 40:31.48 | 4:21.43 | 182373 | 201990
12 | 44:53.16 | 3:45.70 | 201991 | 218935
13 | 48:39.11 | 4:30.60 | 218936 | 239245
14 | 53:09.71 | 2:52.72 | 239246 | 252217


Track 1

Filename V:\INCOMING\LOSSLESS\ZZZ-EAC\01 Salt Fare, North Sea.wav

Pre-gap length 0:00:02.00

Peak level 98.0 %
Track quality 100.0 %
Test CRC 10671197
Copy CRC 10671197
Accurately ripped (confidence 7) [8D65B26C]
Copy OK

Track 2

Filename V:\INCOMING\LOSSLESS\ZZZ-EAC\02 Jacob´s Ladder.wav

Peak level 98.0 %
Track quality 100.0 %
Test CRC 9B27176C
Copy CRC 9B27176C
Accurately ripped (confidence 7) [673A4E9C]
Copy OK

Track 3

Filename V:\INCOMING\LOSSLESS\ZZZ-EAC\03 All In Vain.wav

Peak level 98.0 %
Track quality 99.9 %
Test CRC EFE819E9
Copy CRC EFE819E9
Accurately ripped (confidence 7) [96A19771]
Copy OK

Track 4

Filename V:\INCOMING\LOSSLESS\ZZZ-EAC\04 Home With Me.wav

Peak level 98.0 %
Track quality 100.0 %
Test CRC 1022D697
Copy CRC 1022D697
Accurately ripped (confidence 7) [D4BE8C6B]
Copy OK

Track 5

Filename V:\INCOMING\LOSSLESS\ZZZ-EAC\05 If It Is To Be, It Is Up To Me.wav

Peak level 98.0 %
Track quality 100.0 %
Test CRC 84809F02
Copy CRC 84809F02
Accurately ripped (confidence 7) [E7E3D35A]
Copy OK

Track 6

Filename V:\INCOMING\LOSSLESS\ZZZ-EAC\06 Don´t Try This At Home.wav

Peak level 98.0 %
Track quality 100.0 %
Test CRC AEBB1E87
Copy CRC AEBB1E87
Accurately ripped (confidence 7) [9E83E33E]
Copy OK

Track 7

Filename V:\INCOMING\LOSSLESS\ZZZ-EAC\07 Song For Len Shackleton.wav

Peak level 98.0 %
Track quality 100.0 %
Test CRC 08DCBE92
Copy CRC 08DCBE92
Accurately ripped (confidence 7) [874774A8]
Copy OK

Track 8

Filename V:\INCOMING\LOSSLESS\ZZZ-EAC\08 Without Reason Or Rhyme (The Killing Of Harry Stanley).wav

Peak level 98.0 %
Track quality 100.0 %
Test CRC A7192EFE
Copy CRC A7192EFE
Accurately ripped (confidence 7) [E6FDD01B]
Copy OK

Track 9

Filename V:\INCOMING\LOSSLESS\ZZZ-EAC\09 Don´t Pass Go.wav

Peak level 98.0 %
Track quality 99.9 %
Test CRC FD570B79
Copy CRC FD570B79
Accurately ripped (confidence 7) [0634D4F9]
Copy OK

Track 10

Filename V:\INCOMING\LOSSLESS\ZZZ-EAC\10 One Way Or The Other.wav

Peak level 98.0 %
Track quality 99.9 %
Test CRC FBB4D159
Copy CRC FBB4D159
Accurately ripped (confidence 7) [F7245627]
Copy OK

Track 11

Filename V:\INCOMING\LOSSLESS\ZZZ-EAC\11 When I´m Bad.wav

Peak level 98.0 %
Track quality 100.0 %
Test CRC 8B9CAE71
Copy CRC 8B9CAE71
Accurately ripped (confidence 7) [B0F20790]
Copy OK

Track 12

Filename V:\INCOMING\LOSSLESS\ZZZ-EAC\12 Sewing Up Crap.wav

Peak level 98.0 %
Track quality 100.0 %
Test CRC F04888B1
Copy CRC F04888B1
Accurately ripped (confidence 7) [6DC510A8]
Copy OK

Track 13

Filename V:\INCOMING\LOSSLESS\ZZZ-EAC\13 After Shelley.wav

Peak level 98.0 %
Track quality 100.0 %
Test CRC 223743E7
Copy CRC 223743E7
Accurately ripped (confidence 7) [2B0F98CD]
Copy OK

Track 14

Filename V:\INCOMING\LOSSLESS\ZZZ-EAC\14 Jacob´s Ladder (Not In My Name).wav

Pre-gap length 0:00:01.00

Peak level 98.8 %
Track quality 100.0 %
Test CRC 14A2A7DF
Copy CRC 14A2A7DF
Accurately ripped (confidence 7) [4152DF0E]
Copy OK


All tracks accurately ripped

No errors occurred

End of status report

foobar2000 1.1.14a / Dynamic Range Meter 1.1.1
log date: 2013-01-22 15:49:13

––––––––––––––––––––––––––––––––––––––––
Analyzed: Chumbawamba / Readymades …And Then Some (KOC-CD-8667 [2003])
––––––––––––––––––––––––––––––––––––––––

DR Peak RMS Duration Track
––––––––––––––––––––––––––––––––––––––––
DR9 -0.18 dB -10.56 dB 4:28 01-Salt fare, North Sea
DR8 -0.18 dB -9.88 dB 3:22 02-Jacob´s Ladder
DR9 -0.18 dB -11.28 dB 4:16 03-All In Vain
DR9 -0.18 dB -12.58 dB 3:57 04-Home with me
DR9 -0.18 dB -11.59 dB 4:42 05-If it is to be, it is up to me
DR9 -0.18 dB -10.50 dB 4:02 06-Don´t try this at home
DR9 -0.18 dB -11.68 dB 3:37 07-Song for len shackleton
DR9 -0.18 dB -11.08 dB 3:45 08-Without reason or rhyme (The killing of Harry Stanley)
DR9 -0.18 dB -11.52 dB 4:19 09-Don´t pass go
DR8 -0.18 dB -11.54 dB 4:03 10-One way or the other
DR9 -0.18 dB -11.86 dB 4:22 11-When i´m bad
DR11 -0.18 dB -12.22 dB 3:46 12-Sewing up crap
DR9 -0.18 dB -11.14 dB 4:31 13-After Shelley
DR10 -0.10 dB -11.81 dB 2:53 14-Jacob´s ladder (Not in my name)
––––––––––––––––––––––––––––––––––––––––

Number of tracks: 14
Official DR value: DR9

Samplerate: 44100 Hz
Channels: 2
Bits per sample: 16
Bitrate: 845 kbps
Codec: FLAC
================================================================================



CD Info:

Chumbawamba ‎– Readymades And Then Some

Label: Koch Records
Catalog#: KOC-CD-8667
Format: CD, Album
Country: US
Released: 2003
Genre: Electronic, Folk, World, & Country, Pop
Style: Downtempo

Tracklist:

Tracklist:

01. "Salt Fare, North Sea"
02. "Jacob's Ladder"
03. "All in Vain"
04. "Home With Me"
05. "If It Is to Be, It Is Up to Me"
06. "Don't Try This at Home"
07. "Song for Len Shackleton"
08. "Without Reason or Rhyme (The Killing of Harry Stanley)"
09. "Don't Pass Go"
10. "One Way or the Other"
11. "When I'm Bad"
12. "Sewing Up Crap"
13. "After Shelley"

DVD Bonus:

01. "Tubthumping" (Remix by The Flaming Lips)
02. "Salt Fare, North Sea" (Frankie B. Space Mix)
03. "Salt Fare, North Sea" (Profondement Mix)
04. "Salt Fare, North Sea" (JR Mix)

Notes:

Re-release of "Readymades" with extra track and "And Then Some" DVD with excerpts of the film "Well Done, Now Sod Off".

DVD is not part of this upload (except audio rip of the audio tracks).

Chumbawamba - Readymades ...And Then Some [Koch KOC-CD-8667] {US 2003} (Reuploaded)


review by Johnny Loftus

Chumbawamba's dalliance with the big time and novelty hit-single stardom came to an abrupt and fitting end with 2000s What You See Is What You Get. Rather than write a sequel to "Tubthumping," the famously anarchic group emptied the sack of barbs, slivers, and torn receipts acquired during their curious arc of international fame and glued them into a sticky, hooky, and cynical pop-culture mess. The record was standard operating procedure for Chumbawamba, but it spelled disaster for their deal with EMI, who had likely been hoping for "Son of Tubthumping: I Get Up Again, Again!" Well, bollocks to that. The group's major-label existence always seemed like an elaborate wool pull, anyway; its death was a perfect and expected punch line. After a hiatus, Chumbawamba has returned with Readymades (Koch), a collection of bitterly sarcastic, politically fed-up, and socially on-point modernist folk songs that rattle the brain as much with message as they do with melody. Chopped up guitar and horn samples and shuffleboard drum programming form the basis of "Jacob's Ladder," but the song unites around a timeless Harry Cox vocal sample. "And they sent him to the war to be slain," the revered English folk singer intones over the shimmering beats, and his presence aligns the song's contemporary antiwar message with a long history of protest. "After Shelley" taps the forlorn, soaring singing voice of Kate Rusby, matching it to pop-industrial flurry. Elsewhere, low-key, often lilting arrangements wrap melody around the plight of solitary people against monolithic government. And, in typical Chumbawamba fashion, they name names. "Without Reason or Rhyme (The Killing of Harry Stanley)" recounts the story of Stanley, a Scottish man killed by English police in a terrible case of mistaken identity. The track's swaying, almost balladic grace (and Joe Heaney sample) again connects Readymades to the longstanding folk tradition of the British Isles, where a beautiful melody makes a song's painful or angry lyrics that much more affecting. [This And Then Some version of the album includes a bonus DVD with excerpts from a film about the band, remixes of "Salt Fare, North Sea," and a version of "Tubthumping" performed by the Flaming Lips.] allmusicguide

More Chumbawamba:

Chumbawamba - English Rebel Songs 1381-1914 [Virgin 840 906 2] {1988, ReIssue 1994}
Chumbawamba & Credit to the Nation - Enough Is Enough [One Little Indian 79TP7CD] {1993}
Chumbawamba - Anarchy [London 828 524-2] {1994}
Chumbawamba - Timebomb [London Rec. 857 745-2] {1994}
Chumbawamba - Amnesia [EMI 7243 8 84801 2 39] {1997}
Chumbawamba - On eBay [Edel Records 0153996 ERE] {2004}

Chumbawamba - Readymades ...And Then Some [Koch KOC-CD-8667] {US 2003} (Reuploaded)

// classical music \\
// all of my uploads \\
________________

Download:

Filepost FLAC
Filepost Artwork
________________