Subcategories

Chumbawamba - WYSIWYG {Europe 2000, Lt. Ed. with bonus tracks} (Reuploaded)

Posted By: luckburz
Chumbawamba - WYSIWYG {Europe 2000, Lt. Ed. with bonus tracks} (Reuploaded)

Chumbawamba - What You See Is What You Get
EAC+LOG+CUE | FLAC: 360 MB | Full Artwork | 5% Recovery Info
Label/Cat#: EMI Electrola 7243 5 24996 2 5 | Country/Year: Europe 2000
Genre: Electronic, Rock, Folk | Style: Folk Rock, Punk, Pop Rock, Synth-pop

MD5 [X] CUE [X] LOG [X] INFO TEXT [X] ARTWORK [X]

selfrip [X] not my rip []

Chumbawamba - WYSIWYG {Europe 2000, Lt. Ed. with bonus tracks} (Reuploaded)


Exact Audio Copy V0.99 prebeta 4 from 23. January 2008

EAC extraction logfile from 16. March 2008, 13:31

Chumbawamba / WYSIWYG

Used drive : HL-DT-STDVDRAM GSA-H12L Adapter: 0 ID: 1

Read mode : Secure
Utilize accurate stream : Yes
Defeat audio cache : No
Make use of C2 pointers : No

Read offset correction : 667
Overread into Lead-In and Lead-Out : No
Fill up missing offset samples with silence : Yes
Delete leading and trailing silent blocks : No
Null samples used in CRC calculations : Yes
Used interface : Native Win32 interface for Win NT & 2000
Gap handling : Appended to previous track

Used output format : Internal WAV Routines
Sample format : 44.100 Hz; 16 Bit; Stereo


TOC of the extracted CD

Track | Start | Length | Start sector | End sector
––––––––––––––––––––––––––––-
1 | 0:00.00 | 2:56.25 | 0 | 13224
2 | 2:56.25 | 1:53.12 | 13225 | 21711
3 | 4:49.37 | 3:24.03 | 21712 | 37014
4 | 8:13.40 | 1:58.00 | 37015 | 45864
5 | 10:11.40 | 1:08.00 | 45865 | 50964
6 | 11:19.40 | 2:47.25 | 50965 | 63514
7 | 14:06.65 | 2:30.00 | 63515 | 74764
8 | 16:36.65 | 1:08.10 | 74765 | 79874
9 | 17:45.00 | 1:35.02 | 79875 | 87001
10 | 19:20.02 | 1:57.08 | 87002 | 95784
11 | 21:17.10 | 3:03.15 | 95785 | 109524
12 | 24:20.25 | 2:57.00 | 109525 | 122799
13 | 27:17.25 | 1:32.60 | 122800 | 129759
14 | 28:50.10 | 3:11.65 | 129760 | 144149
15 | 32:02.00 | 1:23.40 | 144150 | 150414
16 | 33:25.40 | 3:13.70 | 150415 | 164959
17 | 36:39.35 | 0:25.45 | 164960 | 166879
18 | 37:05.05 | 0:48.65 | 166880 | 170544
19 | 37:53.70 | 2:31.00 | 170545 | 181869
20 | 40:24.70 | 0:21.40 | 181870 | 183484
21 | 40:46.35 | 2:32.50 | 183485 | 194934
22 | 43:19.10 | 4:31.17 | 194935 | 215276
23 | 47:50.27 | 3:06.40 | 215277 | 229266
24 | 50:56.67 | 1:28.10 | 229267 | 235876
25 | 52:25.02 | 2:49.38 | 235877 | 248589


Track 1

Filename V:\INCOMING\LOSSLESS\ZZZ-EAC\01 I´m With Stupid.wav

Pre-gap length 0:00:02.00

Peak level 98.0 %
Track quality 99.9 %
Test CRC EFB2F1DA
Copy CRC EFB2F1DA
Accurately ripped (confidence 1) [126A22A2]
Copy OK

Track 2

Filename V:\INCOMING\LOSSLESS\ZZZ-EAC\02 Shake Baby Shake.wav

Pre-gap length 0:00:00.03

Peak level 98.0 %
Track quality 100.0 %
Test CRC 3C90E7C6
Copy CRC 3C90E7C6
Accurately ripped (confidence 1) [7F4067B9]
Copy OK

Track 3

Filename V:\INCOMING\LOSSLESS\ZZZ-EAC\03 Pass It Along.wav

Pre-gap length 0:00:00.02

Peak level 98.0 %
Track quality 100.0 %
Test CRC E77D0036
Copy CRC E77D0036
Accurately ripped (confidence 1) [2B318CBD]
Copy OK

Track 4

Filename V:\INCOMING\LOSSLESS\ZZZ-EAC\04 Hey Hey We´re The Junkies.wav

Pre-gap length 0:00:00.03

Peak level 98.0 %
Track quality 100.0 %
Test CRC 9FC26611
Copy CRC 9FC26611
Accurately ripped (confidence 1) [278C1580]
Copy OK

Track 5

Filename V:\INCOMING\LOSSLESS\ZZZ-EAC\05 The Health & Happiness Show.wav

Pre-gap length 0:00:00.03

Peak level 97.9 %
Track quality 100.0 %
Test CRC 7CA13A7E
Copy CRC 7CA13A7E
Accurately ripped (confidence 1) [7B0AD301]
Copy OK

Track 6

Filename V:\INCOMING\LOSSLESS\ZZZ-EAC\06 I´m Coming Out.wav

Pre-gap length 0:00:00.03

Peak level 98.0 %
Track quality 100.0 %
Test CRC 58AC099B
Copy CRC 58AC099B
Accurately ripped (confidence 1) [9DD79E2F]
Copy OK

Track 7

Filename V:\INCOMING\LOSSLESS\ZZZ-EAC\07 I´m in Trouble Again.wav

Pre-gap length 0:00:00.03

Peak level 98.0 %
Track quality 100.0 %
Test CRC 9461BC81
Copy CRC 9461BC81
Accurately ripped (confidence 1) [3DC130C6]
Copy OK

Track 8

Filename V:\INCOMING\LOSSLESS\ZZZ-EAC\08 Social Dogma.wav

Pre-gap length 0:00:00.03

Peak level 97.9 %
Track quality 100.0 %
Test CRC EDB00BC1
Copy CRC EDB00BC1
Accurately ripped (confidence 1) [8D375055]
Copy OK

Track 9

Filename V:\INCOMING\LOSSLESS\ZZZ-EAC\09 WWW DOT.wav

Pre-gap length 0:00:00.03

Peak level 98.0 %
Track quality 100.0 %
Test CRC 36BDD5F9
Copy CRC 36BDD5F9
Accurately ripped (confidence 1) [51E9A2D7]
Copy OK

Track 10

Filename V:\INCOMING\LOSSLESS\ZZZ-EAC\10 New York Mining Disaster 1941.wav

Pre-gap length 0:00:00.02

Peak level 95.8 %
Track quality 100.0 %
Test CRC 59E0D575
Copy CRC 59E0D575
Accurately ripped (confidence 1) [175B60FE]
Copy OK

Track 11

Filename V:\INCOMING\LOSSLESS\ZZZ-EAC\11 I´m Not Sorry I Was Having Fun.wav

Pre-gap length 0:00:00.03

Peak level 98.0 %
Track quality 100.0 %
Test CRC 7FE36925
Copy CRC 7FE36925
Accurately ripped (confidence 1) [822630E0]
Copy OK

Track 12

Filename V:\INCOMING\LOSSLESS\ZZZ-EAC\12 Jesus In Vegas.wav

Pre-gap length 0:00:00.03

Peak level 94.3 %
Track quality 99.9 %
Test CRC 9FD8A5F6
Copy CRC 9FD8A5F6
Accurately ripped (confidence 1) [C4430811]
Copy OK

Track 13

Filename V:\INCOMING\LOSSLESS\ZZZ-EAC\13 The Standing Still.wav

Pre-gap length 0:00:00.03

Peak level 85.5 %
Track quality 100.0 %
Test CRC E2D1CF7A
Copy CRC E2D1CF7A
Accurately ripped (confidence 1) [14541433]
Copy OK

Track 14

Filename V:\INCOMING\LOSSLESS\ZZZ-EAC\14 She´s Got All The Friends.wav

Pre-gap length 0:00:00.03

Peak level 98.0 %
Track quality 100.0 %
Test CRC 3C7A03CC
Copy CRC 3C7A03CC
Accurately ripped (confidence 1) [21975B9C]
Copy OK

Track 15

Filename V:\INCOMING\LOSSLESS\ZZZ-EAC\15 Ladies For Compassionate Lynching.wav

Pre-gap length 0:00:00.03

Peak level 91.0 %
Track quality 100.0 %
Test CRC 011A6EF1
Copy CRC 011A6EF1
Accurately ripped (confidence 1) [36C02FA5]
Copy OK

Track 16

Filename V:\INCOMING\LOSSLESS\ZZZ-EAC\16 Celebration, Florida.wav

Pre-gap length 0:00:00.03

Peak level 92.5 %
Track quality 99.9 %
Test CRC 0CDDF894
Copy CRC 0CDDF894
Accurately ripped (confidence 1) [28AFB4D4]
Copy OK

Track 17

Filename V:\INCOMING\LOSSLESS\ZZZ-EAC\17 Moses With A Gun.wav

Pre-gap length 0:00:00.03

Peak level 89.8 %
Track quality 100.0 %
Test CRC 7B8A55B1
Copy CRC 7B8A55B1
Accurately ripped (confidence 1) [3825AB3A]
Copy OK

Track 18

Filename V:\INCOMING\LOSSLESS\ZZZ-EAC\18 The Physical Impossibility Of Death In The Mind Of Jerry Springer.wav

Pre-gap length 0:00:00.03

Peak level 95.2 %
Track quality 100.0 %
Test CRC 1F3EE8A9
Copy CRC 1F3EE8A9
Accurately ripped (confidence 1) [D0BFFBE8]
Copy OK

Track 19

Filename V:\INCOMING\LOSSLESS\ZZZ-EAC\19 Smart Bomb.wav

Pre-gap length 0:00:00.03

Peak level 88.9 %
Track quality 100.0 %
Test CRC D2DD24FE
Copy CRC D2DD24FE
Accurately ripped (confidence 1) [D6029632]
Copy OK

Track 20

Filename V:\INCOMING\LOSSLESS\ZZZ-EAC\20 Knickers.wav

Pre-gap length 0:00:00.03

Peak level 87.0 %
Track quality 100.0 %
Test CRC 841E92B8
Copy CRC 841E92B8
Accurately ripped (confidence 1) [7542EEA6]
Copy OK

Track 21

Filename V:\INCOMING\LOSSLESS\ZZZ-EAC\21 Lie Lie Lie Lie.wav

Pre-gap length 0:00:00.03

Peak level 95.0 %
Track quality 100.0 %
Test CRC EE0EB2B0
Copy CRC EE0EB2B0
Accurately ripped (confidence 1) [3FBE6CAA]
Copy OK

Track 22

Filename V:\INCOMING\LOSSLESS\ZZZ-EAC\22 Dumbing Down.wav

Pre-gap length 0:00:00.03

Peak level 90.3 %
Track quality 100.0 %
Test CRC 8D2AA3EE
Copy CRC 8D2AA3EE
Accurately ripped (confidence 1) [90CEA1AF]
Copy OK

Track 23

Filename V:\INCOMING\LOSSLESS\ZZZ-EAC\23 Just A Form Of Music.wav

Pre-gap length 0:00:02.62

Peak level 98.0 %
Track quality 100.0 %
Test CRC 51EFA0BA
Copy CRC 51EFA0BA
Accurately ripped (confidence 1) [0BA70631]
Copy OK

Track 24

Filename V:\INCOMING\LOSSLESS\ZZZ-EAC\24 Lest We Forget.wav

Pre-gap length 0:00:01.65

Peak level 59.5 %
Track quality 100.0 %
Test CRC 76317D9B
Copy CRC 76317D9B
Accurately ripped (confidence 1) [025C975A]
Copy OK

Track 25

Filename V:\INCOMING\LOSSLESS\ZZZ-EAC\25 Passenger List For Doomed Flight # 1721.wav

Pre-gap length 0:00:00.27

Peak level 98.0 %
Track quality 100.0 %
Test CRC DF18DE51
Copy CRC DF18DE51
Accurately ripped (confidence 1) [01279A97]
Copy OK


All tracks accurately ripped

No errors occurred

End of status report

foobar2000 1.1.14a / Dynamic Range Meter 1.1.1
log date: 2013-01-22 15:44:40

––––––––––––––––––––––––––––––––––––––––
Analyzed: Chumbawamba / WYSIWYG
––––––––––––––––––––––––––––––––––––––––

DR Peak RMS Duration Track
––––––––––––––––––––––––––––––––––––––––
DR7 -0.18 dB -9.48 dB 2:56 01-I´m With Stupid
DR10 -0.18 dB -11.74 dB 1:53 02-Shake Baby Shake
DR7 -0.18 dB -9.54 dB 3:24 03-Pass It Along
DR7 -0.18 dB -10.11 dB 1:58 04-Hey Hey We´re The Junkies
DR11 -0.18 dB -13.21 dB 1:08 05-The Health & Happiness Show
DR7 -0.18 dB -9.11 dB 2:47 06-I´m Coming Out
DR7 -0.18 dB -9.48 dB 2:30 07-I´m Trouble Again
DR11 -0.18 dB -14.14 dB 1:08 08-Social Dogma
DR9 -0.18 dB -10.57 dB 1:35 09-WWW Dot
DR7 -0.37 dB -8.78 dB 1:57 10-New York Mining Disaster 1941
DR8 -0.18 dB -9.65 dB 3:03 11-I´m Not Sorry, I Was Having Fun
DR7 -0.50 dB -9.25 dB 2:57 12-Jesus In Vegas
DR10 -1.35 dB -14.03 dB 1:33 13-The Standing Still
DR8 -0.18 dB -10.68 dB 3:12 14-She´s Got All The Friends
DR10 -0.81 dB -12.15 dB 1:24 15-Ladies For Compassionate Lynching
DR8 -0.67 dB -10.41 dB 3:14 16-Celebration, Florida
DR9 -0.93 dB -12.23 dB 0:26 17-Moses With A Gun
DR8 -0.42 dB -11.15 dB 0:49 18-The Physical Impossibility Of Death In The Mind of Jerry Springer
DR8 -1.02 dB -11.25 dB 2:31 19-Smart Bomb
DR11 -1.20 dB -15.01 dB 0:22 20-Knickers
DR8 -0.44 dB -10.48 dB 2:33 21-Lie Lie Lie Lie
DR9 -0.88 dB -14.04 dB 4:31 22-Dumbing Down
DR9 -0.18 dB -11.12 dB 3:07 23-Just A Form Of Music
DR7 -4.50 dB -13.47 dB 1:28 24-Lest We Forget
DR8 -0.18 dB -10.12 dB 2:50 25-Passenger List For Doomed Flight # 1721
––––––––––––––––––––––––––––––––––––––––

Number of tracks: 25
Official DR value: DR8

Samplerate: 44100 Hz
Channels: 2
Bits per sample: 16
Bitrate: 890 kbps
Codec: FLAC
================================================================================



CD Info:

Chumbawamba - WYSIWYG

Label: EMI Electrola
Catalog#: 7243 5 24996 2 5
Format: CD, Album, Ltd. Ed.
Country: Europe
Released: 2000
Genre: Electronic, Rock
Style: Folk Rock, Punk, Pop Rock, Synth-pop

Tracklist:

01. "I'm with Stupid"
02. "Shake Baby Shake"
03. "Pass It Along"
04. "Hey Hey We're the Junkies"
05. "The Health and Happiness Show"
06. "I'm Coming Out"
07. "I'm in Trouble Again"
08. "Social Dogma"
09. "WWW Dot"
10. "New York Mining Disaster 1941"
11. "I'm Not Sorry, I Was Having Fun"
12. "Jesus in Vegas"
13. "The Standing Still"
14. "She's Got All the Friends"
15. "Ladies for Compassionate Lynching"
16. "Celebration, Florida"
17. "Moses with a Gun"
18. "The Physical Impossibility of Death in the Mind of Jerry Springer"
19. "Smart Bomb"
20. "Knickers"
21. "Lie Lie Lie Lie"
22. "Dumbing Down"

Bonus Tracks:

23. "Just A Form Of Music"
24. "Lest We Forget"
25. "Passenger List For Doomed Flight #1721"

Notes:

℗ 2000 The copyright in this sound recording is owned by Chumbawamba under exclusive licence to EMI Electrola GMBH.
© 2000 Chumbawamba
Printed in EU
Recorded at Shabby Road,Pudsey;Woodlands, Castelford; and The Chapel, Lincolnshire.
Mixed at Woodlands, Castelford, November 1999
Mastered at The Townhouse, December 1999

Thanks and love to Paul J Greco

Chumbawamba - WYSIWYG {Europe 2000, Lt. Ed. with bonus tracks} (Reuploaded)


review by Stephen Thomas Erlewine

Nearly everyone that was seduced by Chumbawamba's irresistible "Tubthumping" wasn't aware that the band had not only kicked around for over decade, but that they were politically active, social satirists with a penchant for anarchy, both in their politics and music. Of course, nobody would be able to discern that from "Tubthumping," since its sendup of lads shouting "lager, lager, lager" was so accurate that it appealed to the very audience it was spoofing. Still, it was a terrific pop single, and it broke down the doors for the group in America, where Alice Nutter made headlines when she encouraged fans to shoplift their record. If America was amused by Chumbawamba and their antics, the band was even more amused, even befuddled, by the U.S. – so much so that they decided to make What You See Is What You Get, their sequel to Tubthumping, a snapshot of their view of the land of excess. Consisting of 22 songs in under 48 minutes, WYSIWYG is as fast and furious and saturated with pop culture – just like life at the end of the 20th century. Every song moves so fast that the album initially seems a bit like a blur, albeit a tuneful, clever blur. The very brevity of the tracks guarantees that there isn't a track here as chart-friendly as Chumbawamba's fluke hit, but there are plenty of melodies and catchy hooks – they just happen to be pieced together like a collage with a bunch of sound samples, found sounds, snippets of television, spoken words, drum loops, and the like, with all of it folding back onto itself in the second half of the record. As social satirists, the group is a little obvious this time around – "Hey Hey We're the Junkies" is set to the tune of "Hey Hey We're the Monkees," "Pass It Along" sends up Microsoft's slogan "Where Do You Want to Go Today," the 1999 Woodstock riots are justified by "I'm Not Sorry, I Was Having Fun," there are shout-outs to "any Branch Davidians in the house" on "Jesus in Vegas," and they name-drop Jerry Springer – but maybe the point is that America is a little obvious and superficial. Or maybe Chumbawamba falls prey to the typical curse of Brits in America, where they sit above the fray and comment bemusedly on the antics of those silly Yanks (a criticism leveled at everyone from Blur to Sam Mendes' Oscar-winning American Beauty). Either way, it doesn't matter, since WYSIWYG delivers far more than anyone could have expected, especially anyone that considered the group one-hit wonders. It may cover too much ground and be too sprawling for tubthumpers, but it's pretty smart and tuneful and often funny. It'll inevitably sound dated, possibly just two years after its release, but it's a pretty fun snapshot of the end of the American century.
Chumbawamba - WYSIWYG {Europe 2000, Lt. Ed. with bonus tracks} (Reuploaded)
allmusicguide

More Chumbawamba:

Chumbawamba - English Rebel Songs 1381-1914 [Virgin 840 906 2] {1988, ReIssue 1994}
Chumbawamba & Credit to the Nation - Enough Is Enough [One Little Indian 79TP7CD] {1993}
Chumbawamba - Anarchy [London 828 524-2] {1994}
Chumbawamba - Timebomb [London Rec. 857 745-2] {1994}
Chumbawamba - Amnesia [EMI 7243 8 84801 2 39] {1997}
Chumbawamba - On eBay [Edel Records 0153996 ERE] {2004}
Chumbawamba - Readymades …And Then Some [Koch KOC-CD-8667] {US 2003}

Chumbawamba - WYSIWYG {Europe 2000, Lt. Ed. with bonus tracks} (Reuploaded)

// classical music \\
// all of my uploads \\
________________

Download:

Filepost FLAC
Filepost Artwork
________________