Subcategories

Circuit des Yeux - Reaching for Indigo (2017)

Posted By: delpotro
Circuit des Yeux - Reaching for Indigo (2017)

Circuit des Yeux - Reaching for Indigo (2017)
XLD Rip | FLAC (tracks+log+.cue) | 00:34:47 | 170 Mb
Experimental, Folk, Art Pop, Rock, Female Vocal | Label: Drag City

Haley Fohr’s latest and best record of experimental folk folds in some of the simpler songwriting of her countrified Jackie Lynn project.

The events that inspired Reaching for Indigo—Haley Fohr’s stunning fifth album as Circuit Des Yeux—sound at once like an exorcism and an epiphany. As the Lafayette, Ind.-born, Chicago-based songwriter tells it, she mysteriously collapsed one night in early 2016 and found herself “convulsing and vomiting and crying” on the floor. Afterwards, she moved out of her home and eventually adopted a more open understanding of the world around her. In the liner notes, she dedicates Reaching for Indigo to that moment in her life. The jarring story is a fitting progression in the strange evolution of her music, which has always grappled with the way life and nature can change us, despite our efforts to find some thread of logic through it all.

Last year, Fohr took a break from Circuit Des Yeux to pursue a simpler, more straightforward project. The self-titled album she released under the name Jackie Lynn was essentially country music, a set of rumbling, catchy, low-stakes tunes that eschewed the formless sprawl of her previous work. But the quiet, one-off experiment developed a life of its own. The album soon found her faced with new fans, festival slots, and cover stories. “I’m not saying I changed the course of modern music or anything like that,” she reflected at the time, “But it has got a little bit out of hand.”

Reaching for Indigo is Fohr’s first Circuit Des Yeux album since 2015’s In Plain Speech, but it has a lot in common with Jackie Lynn. While In Plain Speech was exceptionally heavy and adventurous—in one song, she played guitar, noisily and viciously, using a butter knife—Reaching for Indigo makes a more immediate connection, marked by warmer, more sophisticated tones. It’s an album bursting with ambition, alternating between moments of intimate beauty and stretches of dense, disorienting fog. Sometimes, the eight-song record plays like a more traditional set of music transforming and corrupting itself in real time. The long, winding “Paper Bag” builds from a spacey ambient burble into a staggering primal chant. In the lyrics, she instructs the listener to breathe into a paper bag. Then she narrates, with a dazzling, somewhat unstable intensity, as you find yourself exploring a surreal new world inside of it.

More than anything, Reaching for Indigo is a showcase for Fohr’s voice: a singular, transformative instrument. “At one point a few years ago I was really concerned because my voice was getting lower and lower and lower,” she recently observed, “It has its own life.” These songs are the most effective showcases for her singing yet, as she hums and warbles and howls over music that refuses to sit still. The apocalyptic, amorphous “Black Fly” begins on acoustic guitar and billows away into something darker, and it’s emblematic of the album as a whole; Fohr’s deep yet fragile singing dictates its shifting moods like a conductor before an orchestra. Other songs take a more pummeling approach that reflects the straightforward songwriting of Jackie Lynn. “Philo” is based on a single piano motif, played by avant garde multi-instrumentalist Ka Baird, while Fohr ascends from cryptic ghost story to full-on battle cry.

Recent years have seen an influx of artists pushing folk music toward more experimental territory, from William Tyler’s wordless, wayward Americana to House and Land’s trad-arr drones. Reaching for Indigo is another bold step in this direction, recalling at times Popol Vuh’s dark, luscious soundtrack work and the vigorous sweep of avant-folk guitarist Robbie Basho’s Visions of the Country. Even when Fohr steps away from the microphone—as she does through most of “A Story Of This World Part II”’s psychedelic storm—the world she crafts feels entirely based around the slow, heady cadence of her baritone. Shouting a few unintelligible lines near the end of the song, she suggests another outlet for her work that could eschew words altogether. “Create your own language,” she transcribes in the lyric sheet. On Reaching for Indigo, she’s started to do precisely that.
Tracklist:
01. Brainshift (04:21)
02. Black Fly (07:27)
03. Philo (06:14)
04. Paper Bag (05:12)
05. A Story of This World Part II (04:05)
06. Call Sign E8 (00:26)
07. Geyser (02:48)
08. Falling Blonde (04:18)

X Lossless Decoder version 20161007 (149.3)

XLD extraction logfile from 2017-10-20 18:49:04 -0400

Circuit Des Yeux / Reaching For Indigo

Used drive : HL-DT-ST BD-RE BP50NB40 (revision 1.00)
Media type : Pressed CD

Ripper mode : XLD Secure Ripper
Disable audio cache : OK for the drive with a cache less than 1375KiB
Make use of C2 pointers : NO
Read offset correction : 6
Max retry count : 100
Gap status : Analyzed, Appended (except HTOA)

TOC of the extracted CD
Track | Start | Length | Start sector | End sector
––––––––––––––––––––––––––––-
1 | 00:00:00 | 04:20:56 | 0 | 19555
2 | 04:20:56 | 07:26:74 | 19556 | 53079
3 | 11:47:55 | 06:13:27 | 53080 | 81081
4 | 18:01:07 | 05:11:04 | 81082 | 104410
5 | 23:12:11 | 04:04:31 | 104411 | 122741
6 | 27:16:42 | 00:25:69 | 122742 | 124685
7 | 27:42:36 | 02:47:14 | 124686 | 137224
8 | 30:29:50 | 04:17:46 | 137225 | 156545

AccurateRip Summary
Disc not found in AccurateRip DB.

All Tracks
Album gain : -8.73 dB
Peak : 0.998047
Statistics
Read error : 0
Jitter error (maybe fixed) : 0
Retry sector count : 0
Damaged sector count : 0

Track 01
Filename : /Users/sockhead/Music/XLD/Circuit Des Yeux - Reaching For Indigo (2017) [FLAC]/01 Brainshift.flac
Pre-gap length : 00:02:00

Track gain : -3.32 dB
Peak : 0.857208
CRC32 hash (test run) : 9EE9A816
CRC32 hash : 9EE9A816
CRC32 hash (skip zero) : 3B063572
AccurateRip v1 signature : 0CBE571F
AccurateRip v2 signature : 32611FCC
->Track not present in AccurateRip database.
Statistics
Read error : 0
Jitter error (maybe fixed) : 0
Retry sector count : 0
Damaged sector count : 0

Track 02
Filename : /Users/sockhead/Music/XLD/Circuit Des Yeux - Reaching For Indigo (2017) [FLAC]/02 Black Fly.flac

Track gain : -8.61 dB
Peak : 0.988953
CRC32 hash (test run) : D185BE5F
CRC32 hash : D185BE5F
CRC32 hash (skip zero) : 4012495D
AccurateRip v1 signature : 20BD9FB7
AccurateRip v2 signature : 3213426E
->Track not present in AccurateRip database.
Statistics
Read error : 0
Jitter error (maybe fixed) : 0
Retry sector count : 0
Damaged sector count : 0

Track 03
Filename : /Users/sockhead/Music/XLD/Circuit Des Yeux - Reaching For Indigo (2017) [FLAC]/03 Philo.flac
Pre-gap length : 00:01:50

Track gain : -10.65 dB
Peak : 0.998047
CRC32 hash (test run) : E1B4BA1D
CRC32 hash : E1B4BA1D
CRC32 hash (skip zero) : 2CA2D051
AccurateRip v1 signature : 6AA1DB17
AccurateRip v2 signature : E671CD86
->Track not present in AccurateRip database.
Statistics
Read error : 0
Jitter error (maybe fixed) : 0
Retry sector count : 0
Damaged sector count : 0

Track 04
Filename : /Users/sockhead/Music/XLD/Circuit Des Yeux - Reaching For Indigo (2017) [FLAC]/04 Paper Bag.flac
Pre-gap length : 00:01:12

Track gain : -8.09 dB
Peak : 0.988983
CRC32 hash (test run) : 207966EC
CRC32 hash : 207966EC
CRC32 hash (skip zero) : 7D8A94A4
AccurateRip v1 signature : 4D909C1A
AccurateRip v2 signature : D1EE355A
->Track not present in AccurateRip database.
Statistics
Read error : 0
Jitter error (maybe fixed) : 0
Retry sector count : 0
Damaged sector count : 0

Track 05
Filename : /Users/sockhead/Music/XLD/Circuit Des Yeux - Reaching For Indigo (2017) [FLAC]/05 A Story Of This World Part II.flac

Track gain : -8.84 dB
Peak : 0.989014
CRC32 hash (test run) : B0BC6E56
CRC32 hash : B0BC6E56
CRC32 hash (skip zero) : 2BFB0DC5
AccurateRip v1 signature : 8BD2EF66
AccurateRip v2 signature : DA8C5A74
->Track not present in AccurateRip database.
Statistics
Read error : 0
Jitter error (maybe fixed) : 0
Retry sector count : 0
Damaged sector count : 0

Track 06
Filename : /Users/sockhead/Music/XLD/Circuit Des Yeux - Reaching For Indigo (2017) [FLAC]/06 Call Sign E8.flac
Pre-gap length : 00:00:55

Track gain : -5.43 dB
Peak : 0.847382
CRC32 hash (test run) : A26F793C
CRC32 hash : A26F793C
CRC32 hash (skip zero) : A4E5BC82
AccurateRip v1 signature : DC6DA1C5
AccurateRip v2 signature : FCA9E250
->Track not present in AccurateRip database.
Statistics
Read error : 0
Jitter error (maybe fixed) : 0
Retry sector count : 0
Damaged sector count : 0

Track 07
Filename : /Users/sockhead/Music/XLD/Circuit Des Yeux - Reaching For Indigo (2017) [FLAC]/07 Geyser.flac
Pre-gap length : 00:01:39

Track gain : -6.40 dB
Peak : 0.988953
CRC32 hash (test run) : 2324E018
CRC32 hash : 2324E018
CRC32 hash (skip zero) : 9C0DE505
AccurateRip v1 signature : 519C1F78
AccurateRip v2 signature : A4AB8F36
->Track not present in AccurateRip database.
Statistics
Read error : 0
Jitter error (maybe fixed) : 0
Retry sector count : 0
Damaged sector count : 0

Track 08
Filename : /Users/sockhead/Music/XLD/Circuit Des Yeux - Reaching For Indigo (2017) [FLAC]/08 Falling Blonde.flac
Pre-gap length : 00:04:17

Track gain : -7.62 dB
Peak : 0.988892
CRC32 hash (test run) : 7386409C
CRC32 hash : 7386409C
CRC32 hash (skip zero) : 72406EA6
AccurateRip v1 signature : 5643966A
AccurateRip v2 signature : C30350FC
->Track not present in AccurateRip database.
Statistics
Read error : 0
Jitter error (maybe fixed) : 0
Retry sector count : 0
Damaged sector count : 0

No errors occurred

End of status report

––-BEGIN XLD SIGNATURE––-
C5fwIBHuH2QhYfr2P0cx0MXqInbLinQST7I_e6eqqS23_TumyNSWPQN2S_LJOQwAe57UNPXIyw9AS_x1Hx_ZUb1kEnoGd_2siK0x28K
––-END XLD SIGNATURE––-

Thanks to the Original ripper Vladmar74 !