Tags
Language
Tags

Clannad - In a Lifetime (2020)

Posted By: delpotro
Clannad - In a Lifetime (2020)

Clannad - In a Lifetime (2020)
EAC Rip | FLAC (tracks+log+.cue) | Covers included | 02:24:21 | 857 Mb
Folk, Celtic, New Age | Label: BMG Rights Management

Compiled in conjunction with Clannad band members, In A Lifetime includes all the hits and two new songs ‘A Celtic Dream’ and ‘Who Knows (Where The Time Goes)’ both produced by Trevor Horn.
Tracklist:
1. Clannad – A Celtic Dream (05:22)
2. Clannad – Thíos Cois Na Trá Domh (03:05)
3. Clannad – An Mhaighdean Mhara (02:12)
4. Clannad – Eleanor Plunkett (02:46)
5. Clannad – Coinleach Glas An Fhómhair (05:42)
6. Clannad – Dúlamán (04:28)
7. Clannad – Two Sisters (04:09)
8. Clannad – DTigeas A Damhsa (01:21)
9. Clannad – The Last Rose of Summer (04:12)
10. Clannad – Ar A Ghabhail'n A'Chuain Damh (03:25)
11. Clannad – Crann Úll (03:39)
12. Clannad – Mheall Sí Lena Glórthaí Mé (04:18)
13. Clannad – Mhorag 's Na Horo Gheallaidh (01:42)
14. Clannad – Theme from Harry's Game (2003 - Remaster) (02:29)
15. Clannad – Newgrange (2003 - Remaster) (04:02)
16. Clannad – Robin (The Hooded Man) [2003 - Remaster] (02:45)
17. Clannad – Strange Land (2003 - Remaster) (03:11)
18. Clannad – Closer to Your Heart (2003 - Remaster) (03:27)
19. Clannad & Bono – In a Lifetime (2003 - Remaster) (03:08)
20. Clannad – Almost Seems (Too Late to Turn) [2003 - Remaster] (04:45)
21. Clannad – White Fool (2003 - Remaster) (04:41)
22. Clannad – Something to Believe In (2003 - Remaster) (04:45)
23. Clannad – Atlantic Realm (03:49)
24. Clannad – Voyager (03:17)
25. Clannad – A Dream in the Night (The Angel & the Soldier Boy) (03:06)
26. Clannad – Hourglass (04:18)
27. Clannad – Rí Na Cruinne (2003 - Remaster) (04:01)
28. Clannad – Poison Glen (2003 - Remaster) (03:54)
29. Clannad – Na Laethe Bhí (2004 - Remaster) (05:20)
30. Clannad – I Will Find You (Theme from "the Last of the Mohicans") (05:14)
31. Clannad – Croi Cróga (2004 Remaster) (04:59)
32. Clannad – A Bridge (That Carries Us Over) [2004 Remaster] (04:28)
33. Clannad – A Mhuirnín Ó (2004 Remaster) (04:53)
34. Clannad – The Bridge of Tears (2004 Remaster) (03:59)
35. Clannad – Vellum (04:45)
36. Clannad – Brave Enough (04:11)
37. Clannad – Who Knows (Where the Time Goes) (04:15)

Exact Audio Copy V1.3 from 2. September 2016

EAC extraction logfile from 27. September 2020, 10:17

Clannad / In A Lifetime

Used drive : PLEXTOR PX-891SAF Adapter: 1 ID: 0

Read mode : Secure
Utilize accurate stream : Yes
Defeat audio cache : Yes
Make use of C2 pointers : No

Read offset correction : 6
Overread into Lead-In and Lead-Out : No
Fill up missing offset samples with silence : Yes
Delete leading and trailing silent blocks : No
Null samples used in CRC calculations : Yes
Used interface : Native Win32 interface for Win NT & 2000
Gap handling : Appended to previous track

Used output format : User Defined Encoder
Selected bitrate : 1024 kBit/s
Quality : High
Add ID3 tag : No
Command line compressor : C:\Program Files (x86)\Exact Audio Copy\Flac\flac.exe
Additional command line options : -8 -V -T "ARTIST=%artist%" -T "TITLE=%title%" -T "ALBUM=%albumtitle%" -T "DATE=%year%" -T "TRACKNUMBER=%tracknr%" -T "GENRE=%genre%" -T "PERFORMER=%albuminterpret%" -T "COMPOSER=%composer%" %haslyrics%–tag-from-file=LYRICS="%lyricsfile%"%haslyrics% -T "ALBUMARTIST=%albumartist%" -T "DISCNUMBER=%cdnumber%" -T "TOTALDISCS=%totalcds%" -T "TOTALTRACKS=%numtracks%" -T "COMMENT=%comment%" %source% -o %dest%


TOC of the extracted CD

Track | Start | Length | Start sector | End sector
––––––––––––––––––––––––––––-
1 | 0:00.00 | 3:05.12 | 0 | 13886
2 | 3:05.12 | 2:12.64 | 13887 | 23850
3 | 5:18.01 | 2:46.28 | 23851 | 36328
4 | 8:04.29 | 5:42.53 | 36329 | 62031
5 | 13:47.07 | 4:28.66 | 62032 | 82197
6 | 18:15.73 | 4:09.18 | 82198 | 100890
7 | 22:25.16 | 1:21.31 | 100891 | 106996
8 | 23:46.47 | 4:12.71 | 106997 | 125967
9 | 27:59.43 | 3:25.00 | 125968 | 141342
10 | 31:24.43 | 3:39.47 | 141343 | 157814
11 | 35:04.15 | 4:18.10 | 157815 | 177174
12 | 39:22.25 | 1:42.20 | 177175 | 184844
13 | 41:04.45 | 2:29.45 | 184845 | 196064
14 | 43:34.15 | 4:02.57 | 196065 | 214271
15 | 47:36.72 | 2:45.23 | 214272 | 226669
16 | 50:22.20 | 3:11.27 | 226670 | 241021
17 | 53:33.47 | 3:27.29 | 241022 | 256575
18 | 57:01.01 | 3:08.08 | 256576 | 270683
19 | 60:09.09 | 4:45.29 | 270684 | 292087
20 | 64:54.38 | 4:41.46 | 292088 | 313208
21 | 69:36.09 | 4:45.16 | 313209 | 334599


Track 1

Filename D:\#EAC new\#wav+flac\#add\Clannad - In A Lifetime\cd 1\01. Clannad - Thios Cois Na Tra Domh.wav

Pre-gap length 0:00:02.00

Peak level 91.3 %
Extraction speed 5.2 X
Track quality 100.0 %
Test CRC 5F76D7A5
Copy CRC 5F76D7A5
Accurately ripped (confidence 10) [F5BB41D7] (AR v2)
Copy OK

Track 2

Filename D:\#EAC new\#wav+flac\#add\Clannad - In A Lifetime\cd 1\02. Clannad - An Mhaighdean Mhara.wav

Pre-gap length 0:00:01.13

Peak level 87.2 %
Extraction speed 5.2 X
Track quality 100.0 %
Test CRC 977C8900
Copy CRC 977C8900
Accurately ripped (confidence 10) [01DB007D] (AR v2)
Copy OK

Track 3

Filename D:\#EAC new\#wav+flac\#add\Clannad - In A Lifetime\cd 1\03. Clannad - Eleanor Plunkett.wav

Pre-gap length 0:00:00.89

Peak level 92.6 %
Extraction speed 5.7 X
Track quality 100.0 %
Test CRC 567D23C7
Copy CRC 567D23C7
Accurately ripped (confidence 10) [AA930D99] (AR v2)
Copy OK

Track 4

Filename D:\#EAC new\#wav+flac\#add\Clannad - In A Lifetime\cd 1\04. Clannad - Coinleach Ghlas An Fhomair.wav

Pre-gap length 0:00:01.38

Peak level 99.7 %
Extraction speed 6.8 X
Track quality 100.0 %
Test CRC 17E58E36
Copy CRC 17E58E36
Accurately ripped (confidence 10) [CA00544A] (AR v2)
Copy OK

Track 5

Filename D:\#EAC new\#wav+flac\#add\Clannad - In A Lifetime\cd 1\05. Clannad - Dulaman.wav

Pre-gap length 0:00:01.02

Peak level 99.7 %
Extraction speed 6.1 X
Track quality 99.9 %
Test CRC 5A2F8535
Copy CRC 5A2F8535
Accurately ripped (confidence 10) [F82992A2] (AR v2)
Copy OK

Track 6

Filename D:\#EAC new\#wav+flac\#add\Clannad - In A Lifetime\cd 1\06. Clannad - Two Sisters.wav

Pre-gap length 0:00:00.81

Peak level 100.0 %
Extraction speed 7.4 X
Track quality 100.0 %
Test CRC 4186753E
Copy CRC 4186753E
Accurately ripped (confidence 10) [6B4BF293] (AR v2)
Copy OK

Track 7

Filename D:\#EAC new\#wav+flac\#add\Clannad - In A Lifetime\cd 1\07. Clannad - dTigeas A Damhsa.wav

Pre-gap length 0:00:01.06

Peak level 99.7 %
Extraction speed 6.0 X
Track quality 100.0 %
Test CRC 7D0DD038
Copy CRC 7D0DD038
Accurately ripped (confidence 10) [BB8868B4] (AR v2)
Copy OK

Track 8

Filename D:\#EAC new\#wav+flac\#add\Clannad - In A Lifetime\cd 1\08. Clannad - The Last Rose Of Summer.wav

Pre-gap length 0:00:01.13

Peak level 100.0 %
Extraction speed 6.6 X
Track quality 99.9 %
Test CRC AA9C367A
Copy CRC AA9C367A
Accurately ripped (confidence 10) [1CEBB770] (AR v2)
Copy OK

Track 9

Filename D:\#EAC new\#wav+flac\#add\Clannad - In A Lifetime\cd 1\09. Clannad - Ar A Ghabhail N A Chusan Damh.wav

Pre-gap length 0:00:01.86

Peak level 100.0 %
Extraction speed 8.0 X
Track quality 100.0 %
Test CRC 91620000
Copy CRC 91620000
Accurately ripped (confidence 10) [52B4EF64] (AR v2)
Copy OK

Track 10

Filename D:\#EAC new\#wav+flac\#add\Clannad - In A Lifetime\cd 1\10. Clannad - Crann Ull.wav

Pre-gap length 0:00:01.60

Peak level 100.0 %
Extraction speed 8.3 X
Track quality 100.0 %
Test CRC AE50CAE5
Copy CRC AE50CAE5
Accurately ripped (confidence 10) [0D504BD0] (AR v2)
Copy OK

Track 11

Filename D:\#EAC new\#wav+flac\#add\Clannad - In A Lifetime\cd 1\11. Clannad - Mheall Si Lena Glorthai Me.wav

Pre-gap length 0:00:01.32

Peak level 100.0 %
Extraction speed 8.8 X
Track quality 100.0 %
Test CRC 61584642
Copy CRC 61584642
Accurately ripped (confidence 10) [B32C1854] (AR v2)
Copy OK

Track 12

Filename D:\#EAC new\#wav+flac\#add\Clannad - In A Lifetime\cd 1\12. Clannad - Mhorag sNa Horo Gheallaidh.wav

Pre-gap length 0:00:01.86

Peak level 91.3 %
Extraction speed 5.3 X
Track quality 99.8 %
Test CRC 89892519
Copy CRC 89892519
Accurately ripped (confidence 10) [00CB63B4] (AR v2)
Copy OK

Track 13

Filename D:\#EAC new\#wav+flac\#add\Clannad - In A Lifetime\cd 1\13. Clannad - Theme From Harrys Game.wav

Pre-gap length 0:00:01.24

Peak level 68.2 %
Extraction speed 8.5 X
Track quality 100.0 %
Test CRC 205F91F7
Copy CRC 205F91F7
Accurately ripped (confidence 10) [7D5A40DA] (AR v2)
Copy OK

Track 14

Filename D:\#EAC new\#wav+flac\#add\Clannad - In A Lifetime\cd 1\14. Clannad - Newgrange.wav

Pre-gap length 0:00:01.38

Peak level 100.0 %
Extraction speed 9.2 X
Track quality 100.0 %
Test CRC 095B1B3A
Copy CRC 095B1B3A
Accurately ripped (confidence 10) [7BA5B092] (AR v2)
Copy OK

Track 15

Filename D:\#EAC new\#wav+flac\#add\Clannad - In A Lifetime\cd 1\15. Clannad - Robin (The Hooded Man).wav

Pre-gap length 0:00:01.25

Peak level 78.7 %
Extraction speed 7.1 X
Track quality 99.9 %
Test CRC EF6AF7CF
Copy CRC EF6AF7CF
Accurately ripped (confidence 10) [09ABE7B2] (AR v2)
Copy OK

Track 16

Filename D:\#EAC new\#wav+flac\#add\Clannad - In A Lifetime\cd 1\16. Clannad - Strange Land.wav

Pre-gap length 0:00:01.49

Peak level 100.0 %
Extraction speed 9.4 X
Track quality 100.0 %
Test CRC 89D1BC1C
Copy CRC 89D1BC1C
Accurately ripped (confidence 10) [54894E37] (AR v2)
Copy OK

Track 17

Filename D:\#EAC new\#wav+flac\#add\Clannad - In A Lifetime\cd 1\17. Clannad - Closer To Your Heart.wav

Pre-gap length 0:00:01.61

Peak level 100.0 %
Extraction speed 9.6 X
Track quality 100.0 %
Test CRC CDCA1EB6
Copy CRC CDCA1EB6
Accurately ripped (confidence 10) [B6CEAFDA] (AR v2)
Copy OK

Track 18

Filename D:\#EAC new\#wav+flac\#add\Clannad - In A Lifetime\cd 1\18. Clannad & Bono - In A Lifetime.wav

Pre-gap length 0:00:00.74

Peak level 100.0 %
Extraction speed 9.7 X
Track quality 100.0 %
Test CRC 31D9D633
Copy CRC 31D9D633
Accurately ripped (confidence 10) [CD96C3E2] (AR v2)
Copy OK

Track 19

Filename D:\#EAC new\#wav+flac\#add\Clannad - In A Lifetime\cd 1\19. Clannad - Almost Seems To Late To Turn.wav

Pre-gap length 0:00:01.49

Peak level 78.5 %
Extraction speed 10.6 X
Track quality 100.0 %
Test CRC D2EB9FB3
Copy CRC D2EB9FB3
Accurately ripped (confidence 10) [DBB1C1C1] (AR v2)
Copy OK

Track 20

Filename D:\#EAC new\#wav+flac\#add\Clannad - In A Lifetime\cd 1\20. Clannad - White Fool.wav

Pre-gap length 0:00:01.01

Peak level 100.0 %
Extraction speed 7.5 X
Track quality 100.0 %
Test CRC E8630B47
Copy CRC E8630B47
Accurately ripped (confidence 10) [D82B002F] (AR v2)
Copy OK

Track 21

Filename D:\#EAC new\#wav+flac\#add\Clannad - In A Lifetime\cd 1\21. Clannad - Something To Believe In.wav

Pre-gap length 0:00:02.02

Peak level 100.0 %
Extraction speed 6.9 X
Track quality 99.9 %
Test CRC 51DB360E
Copy CRC 51DB360E
Accurately ripped (confidence 10) [AC1C4272] (AR v2)
Copy OK


All tracks accurately ripped

No errors occurred

End of status report

–– CUETools DB Plugin V2.1.6

[CTDB TOCID: QuEeGlWWcrqFNspi8Ctwyo_QoJE-] found
Submit result: QuEeGlWWcrqFNspi8Ctwyo_QoJE- has been confirmed
Track | CTDB Status
1 | (53/53) Accurately ripped
2 | (53/53) Accurately ripped
3 | (53/53) Accurately ripped
4 | (53/53) Accurately ripped
5 | (53/53) Accurately ripped
6 | (53/53) Accurately ripped
7 | (53/53) Accurately ripped
8 | (53/53) Accurately ripped
9 | (53/53) Accurately ripped
10 | (53/53) Accurately ripped
11 | (53/53) Accurately ripped
12 | (53/53) Accurately ripped
13 | (53/53) Accurately ripped
14 | (53/53) Accurately ripped
15 | (53/53) Accurately ripped
16 | (53/53) Accurately ripped
17 | (53/53) Accurately ripped
18 | (53/53) Accurately ripped
19 | (53/53) Accurately ripped
20 | (53/53) Accurately ripped
21 | (51/53) Accurately ripped, or (2/53) differs in 8914 samples @04:44:71-04:45:05


==== Log checksum 5D49CF69A9C3A26869AB0C6F85BC21F8F74E1A99E77C67B7748F86E58905218A ====

––––––––––––––––––––––––––––––

Exact Audio Copy V1.3 from 2. September 2016

EAC extraction logfile from 27. September 2020, 10:17

Clannad / In A Lifetime

Used drive : PLEXTOR PX-891SAF Adapter: 1 ID: 0

Read mode : Secure
Utilize accurate stream : Yes
Defeat audio cache : Yes
Make use of C2 pointers : No

Read offset correction : 6
Overread into Lead-In and Lead-Out : No
Fill up missing offset samples with silence : Yes
Delete leading and trailing silent blocks : No
Null samples used in CRC calculations : Yes
Used interface : Native Win32 interface for Win NT & 2000
Gap handling : Appended to previous track

Used output format : User Defined Encoder
Selected bitrate : 1024 kBit/s
Quality : High
Add ID3 tag : No
Command line compressor : C:\Program Files (x86)\Exact Audio Copy\Flac\flac.exe
Additional command line options : -8 -V -T "ARTIST=%artist%" -T "TITLE=%title%" -T "ALBUM=%albumtitle%" -T "DATE=%year%" -T "TRACKNUMBER=%tracknr%" -T "GENRE=%genre%" -T "PERFORMER=%albuminterpret%" -T "COMPOSER=%composer%" %haslyrics%–tag-from-file=LYRICS="%lyricsfile%"%haslyrics% -T "ALBUMARTIST=%albumartist%" -T "DISCNUMBER=%cdnumber%" -T "TOTALDISCS=%totalcds%" -T "TOTALTRACKS=%numtracks%" -T "COMMENT=%comment%" %source% -o %dest%


TOC of the extracted CD

Track | Start | Length | Start sector | End sector
––––––––––––––––––––––––––––-
1 | 0:00.00 | 3:05.12 | 0 | 13886
2 | 3:05.12 | 2:12.64 | 13887 | 23850
3 | 5:18.01 | 2:46.28 | 23851 | 36328
4 | 8:04.29 | 5:42.53 | 36329 | 62031
5 | 13:47.07 | 4:28.66 | 62032 | 82197
6 | 18:15.73 | 4:09.18 | 82198 | 100890
7 | 22:25.16 | 1:21.31 | 100891 | 106996
8 | 23:46.47 | 4:12.71 | 106997 | 125967
9 | 27:59.43 | 3:25.00 | 125968 | 141342
10 | 31:24.43 | 3:39.47 | 141343 | 157814
11 | 35:04.15 | 4:18.10 | 157815 | 177174
12 | 39:22.25 | 1:42.20 | 177175 | 184844
13 | 41:04.45 | 2:29.45 | 184845 | 196064
14 | 43:34.15 | 4:02.57 | 196065 | 214271
15 | 47:36.72 | 2:45.23 | 214272 | 226669
16 | 50:22.20 | 3:11.27 | 226670 | 241021
17 | 53:33.47 | 3:27.29 | 241022 | 256575
18 | 57:01.01 | 3:08.08 | 256576 | 270683
19 | 60:09.09 | 4:45.29 | 270684 | 292087
20 | 64:54.38 | 4:41.46 | 292088 | 313208
21 | 69:36.09 | 4:45.16 | 313209 | 334599


Track 1

Filename D:\#EAC new\#wav+flac\#add\Clannad - In A Lifetime\cd 1\01. Clannad - Thios Cois Na Tra Domh.wav

Pre-gap length 0:00:02.00

Peak level 91.3 %
Extraction speed 5.2 X
Track quality 100.0 %
Test CRC 5F76D7A5
Copy CRC 5F76D7A5
Accurately ripped (confidence 10) [F5BB41D7] (AR v2)
Copy OK

Track 2

Filename D:\#EAC new\#wav+flac\#add\Clannad - In A Lifetime\cd 1\02. Clannad - An Mhaighdean Mhara.wav

Pre-gap length 0:00:01.13

Peak level 87.2 %
Extraction speed 5.2 X
Track quality 100.0 %
Test CRC 977C8900
Copy CRC 977C8900
Accurately ripped (confidence 10) [01DB007D] (AR v2)
Copy OK

Track 3

Filename D:\#EAC new\#wav+flac\#add\Clannad - In A Lifetime\cd 1\03. Clannad - Eleanor Plunkett.wav

Pre-gap length 0:00:00.89

Peak level 92.6 %
Extraction speed 5.7 X
Track quality 100.0 %
Test CRC 567D23C7
Copy CRC 567D23C7
Accurately ripped (confidence 10) [AA930D99] (AR v2)
Copy OK

Track 4

Filename D:\#EAC new\#wav+flac\#add\Clannad - In A Lifetime\cd 1\04. Clannad - Coinleach Ghlas An Fhomair.wav

Pre-gap length 0:00:01.38

Peak level 99.7 %
Extraction speed 6.8 X
Track quality 100.0 %
Test CRC 17E58E36
Copy CRC 17E58E36
Accurately ripped (confidence 10) [CA00544A] (AR v2)
Copy OK

Track 5

Filename D:\#EAC new\#wav+flac\#add\Clannad - In A Lifetime\cd 1\05. Clannad - Dulaman.wav

Pre-gap length 0:00:01.02

Peak level 99.7 %
Extraction speed 6.1 X
Track quality 99.9 %
Test CRC 5A2F8535
Copy CRC 5A2F8535
Accurately ripped (confidence 10) [F82992A2] (AR v2)
Copy OK

Track 6

Filename D:\#EAC new\#wav+flac\#add\Clannad - In A Lifetime\cd 1\06. Clannad - Two Sisters.wav

Pre-gap length 0:00:00.81

Peak level 100.0 %
Extraction speed 7.4 X
Track quality 100.0 %
Test CRC 4186753E
Copy CRC 4186753E
Accurately ripped (confidence 10) [6B4BF293] (AR v2)
Copy OK

Track 7

Filename D:\#EAC new\#wav+flac\#add\Clannad - In A Lifetime\cd 1\07. Clannad - dTigeas A Damhsa.wav

Pre-gap length 0:00:01.06

Peak level 99.7 %
Extraction speed 6.0 X
Track quality 100.0 %
Test CRC 7D0DD038
Copy CRC 7D0DD038
Accurately ripped (confidence 10) [BB8868B4] (AR v2)
Copy OK

Track 8

Filename D:\#EAC new\#wav+flac\#add\Clannad - In A Lifetime\cd 1\08. Clannad - The Last Rose Of Summer.wav

Pre-gap length 0:00:01.13

Peak level 100.0 %
Extraction speed 6.6 X
Track quality 99.9 %
Test CRC AA9C367A
Copy CRC AA9C367A
Accurately ripped (confidence 10) [1CEBB770] (AR v2)
Copy OK

Track 9

Filename D:\#EAC new\#wav+flac\#add\Clannad - In A Lifetime\cd 1\09. Clannad - Ar A Ghabhail N A Chusan Damh.wav

Pre-gap length 0:00:01.86

Peak level 100.0 %
Extraction speed 8.0 X
Track quality 100.0 %
Test CRC 91620000
Copy CRC 91620000
Accurately ripped (confidence 10) [52B4EF64] (AR v2)
Copy OK

Track 10

Filename D:\#EAC new\#wav+flac\#add\Clannad - In A Lifetime\cd 1\10. Clannad - Crann Ull.wav

Pre-gap length 0:00:01.60

Peak level 100.0 %
Extraction speed 8.3 X
Track quality 100.0 %
Test CRC AE50CAE5
Copy CRC AE50CAE5
Accurately ripped (confidence 10) [0D504BD0] (AR v2)
Copy OK

Track 11

Filename D:\#EAC new\#wav+flac\#add\Clannad - In A Lifetime\cd 1\11. Clannad - Mheall Si Lena Glorthai Me.wav

Pre-gap length 0:00:01.32

Peak level 100.0 %
Extraction speed 8.8 X
Track quality 100.0 %
Test CRC 61584642
Copy CRC 61584642
Accurately ripped (confidence 10) [B32C1854] (AR v2)
Copy OK

Track 12

Filename D:\#EAC new\#wav+flac\#add\Clannad - In A Lifetime\cd 1\12. Clannad - Mhorag sNa Horo Gheallaidh.wav

Pre-gap length 0:00:01.86

Peak level 91.3 %
Extraction speed 5.3 X
Track quality 99.8 %
Test CRC 89892519
Copy CRC 89892519
Accurately ripped (confidence 10) [00CB63B4] (AR v2)
Copy OK

Track 13

Filename D:\#EAC new\#wav+flac\#add\Clannad - In A Lifetime\cd 1\13. Clannad - Theme From Harrys Game.wav

Pre-gap length 0:00:01.24

Peak level 68.2 %
Extraction speed 8.5 X
Track quality 100.0 %
Test CRC 205F91F7
Copy CRC 205F91F7
Accurately ripped (confidence 10) [7D5A40DA] (AR v2)
Copy OK

Track 14

Filename D:\#EAC new\#wav+flac\#add\Clannad - In A Lifetime\cd 1\14. Clannad - Newgrange.wav

Pre-gap length 0:00:01.38

Peak level 100.0 %
Extraction speed 9.2 X
Track quality 100.0 %
Test CRC 095B1B3A
Copy CRC 095B1B3A
Accurately ripped (confidence 10) [7BA5B092] (AR v2)
Copy OK

Track 15

Filename D:\#EAC new\#wav+flac\#add\Clannad - In A Lifetime\cd 1\15. Clannad - Robin (The Hooded Man).wav

Pre-gap length 0:00:01.25

Peak level 78.7 %
Extraction speed 7.1 X
Track quality 99.9 %
Test CRC EF6AF7CF
Copy CRC EF6AF7CF
Accurately ripped (confidence 10) [09ABE7B2] (AR v2)
Copy OK

Track 16

Filename D:\#EAC new\#wav+flac\#add\Clannad - In A Lifetime\cd 1\16. Clannad - Strange Land.wav

Pre-gap length 0:00:01.49

Peak level 100.0 %
Extraction speed 9.4 X
Track quality 100.0 %
Test CRC 89D1BC1C
Copy CRC 89D1BC1C
Accurately ripped (confidence 10) [54894E37] (AR v2)
Copy OK

Track 17

Filename D:\#EAC new\#wav+flac\#add\Clannad - In A Lifetime\cd 1\17. Clannad - Closer To Your Heart.wav

Pre-gap length 0:00:01.61

Peak level 100.0 %
Extraction speed 9.6 X
Track quality 100.0 %
Test CRC CDCA1EB6
Copy CRC CDCA1EB6
Accurately ripped (confidence 10) [B6CEAFDA] (AR v2)
Copy OK

Track 18

Filename D:\#EAC new\#wav+flac\#add\Clannad - In A Lifetime\cd 1\18. Clannad & Bono - In A Lifetime.wav

Pre-gap length 0:00:00.74

Peak level 100.0 %
Extraction speed 9.7 X
Track quality 100.0 %
Test CRC 31D9D633
Copy CRC 31D9D633
Accurately ripped (confidence 10) [CD96C3E2] (AR v2)
Copy OK

Track 19

Filename D:\#EAC new\#wav+flac\#add\Clannad - In A Lifetime\cd 1\19. Clannad - Almost Seems To Late To Turn.wav

Pre-gap length 0:00:01.49

Peak level 78.5 %
Extraction speed 10.6 X
Track quality 100.0 %
Test CRC D2EB9FB3
Copy CRC D2EB9FB3
Accurately ripped (confidence 10) [DBB1C1C1] (AR v2)
Copy OK

Track 20

Filename D:\#EAC new\#wav+flac\#add\Clannad - In A Lifetime\cd 1\20. Clannad - White Fool.wav

Pre-gap length 0:00:01.01

Peak level 100.0 %
Extraction speed 7.5 X
Track quality 100.0 %
Test CRC E8630B47
Copy CRC E8630B47
Accurately ripped (confidence 10) [D82B002F] (AR v2)
Copy OK

Track 21

Filename D:\#EAC new\#wav+flac\#add\Clannad - In A Lifetime\cd 1\21. Clannad - Something To Believe In.wav

Pre-gap length 0:00:02.02

Peak level 100.0 %
Extraction speed 6.9 X
Track quality 99.9 %
Test CRC 51DB360E
Copy CRC 51DB360E
Accurately ripped (confidence 10) [AC1C4272] (AR v2)
Copy OK


All tracks accurately ripped

No errors occurred

End of status report

–– CUETools DB Plugin V2.1.6

[CTDB TOCID: QuEeGlWWcrqFNspi8Ctwyo_QoJE-] found
Submit result: QuEeGlWWcrqFNspi8Ctwyo_QoJE- has been confirmed
Track | CTDB Status
1 | (53/53) Accurately ripped
2 | (53/53) Accurately ripped
3 | (53/53) Accurately ripped
4 | (53/53) Accurately ripped
5 | (53/53) Accurately ripped
6 | (53/53) Accurately ripped
7 | (53/53) Accurately ripped
8 | (53/53) Accurately ripped
9 | (53/53) Accurately ripped
10 | (53/53) Accurately ripped
11 | (53/53) Accurately ripped
12 | (53/53) Accurately ripped
13 | (53/53) Accurately ripped
14 | (53/53) Accurately ripped
15 | (53/53) Accurately ripped
16 | (53/53) Accurately ripped
17 | (53/53) Accurately ripped
18 | (53/53) Accurately ripped
19 | (53/53) Accurately ripped
20 | (53/53) Accurately ripped
21 | (51/53) Accurately ripped, or (2/53) differs in 8914 samples @04:44:71-04:45:05


==== Log checksum 5D49CF69A9C3A26869AB0C6F85BC21F8F74E1A99E77C67B7748F86E58905218A ====
Exact Audio Copy V1.3 from 2. September 2016

EAC extraction logfile from 27. September 2020, 13:52

Clannad / In A Lifetime

Used drive : PLEXTOR PX-891SAF Adapter: 1 ID: 0

Read mode : Secure
Utilize accurate stream : Yes
Defeat audio cache : Yes
Make use of C2 pointers : No

Read offset correction : 6
Overread into Lead-In and Lead-Out : No
Fill up missing offset samples with silence : Yes
Delete leading and trailing silent blocks : No
Null samples used in CRC calculations : Yes
Used interface : Native Win32 interface for Win NT & 2000
Gap handling : Appended to previous track

Used output format : User Defined Encoder
Selected bitrate : 1024 kBit/s
Quality : High
Add ID3 tag : No
Command line compressor : C:\Program Files (x86)\Exact Audio Copy\Flac\flac.exe
Additional command line options : -8 -V -T "ARTIST=%artist%" -T "TITLE=%title%" -T "ALBUM=%albumtitle%" -T "DATE=%year%" -T "TRACKNUMBER=%tracknr%" -T "GENRE=%genre%" -T "PERFORMER=%albuminterpret%" -T "COMPOSER=%composer%" %haslyrics%–tag-from-file=LYRICS="%lyricsfile%"%haslyrics% -T "ALBUMARTIST=%albumartist%" -T "DISCNUMBER=%cdnumber%" -T "TOTALDISCS=%totalcds%" -T "TOTALTRACKS=%numtracks%" -T "COMMENT=%comment%" %source% -o %dest%


TOC of the extracted CD

Track | Start | Length | Start sector | End sector
––––––––––––––––––––––––––––-
1 | 0:00.00 | 3:49.32 | 0 | 17206
2 | 3:49.32 | 3:17.39 | 17207 | 32020
3 | 7:06.71 | 3:06.67 | 32021 | 46037
4 | 10:13.63 | 4:18.50 | 46038 | 65437
5 | 14:32.38 | 4:01.00 | 65438 | 83512
6 | 18:33.38 | 3:54.51 | 83513 | 101113
7 | 22:28.14 | 5:20.69 | 101114 | 125182
8 | 27:49.08 | 5:14.14 | 125183 | 148746
9 | 33:03.22 | 4:59.07 | 148747 | 171178
10 | 38:02.29 | 4:28.10 | 171179 | 191288
11 | 42:30.39 | 4:53.70 | 191289 | 213333
12 | 47:24.34 | 3:59.55 | 213334 | 231313
13 | 51:24.14 | 4:45.55 | 231314 | 252743
14 | 56:09.69 | 4:11.50 | 252744 | 271618
15 | 60:21.44 | 5:22.71 | 271619 | 295839
16 | 65:44.40 | 4:15.59 | 295840 | 315023


Track 1

Filename D:\#EAC new\#wav+flac\#add\Clannad - In A Lifetime\cd 2\01. Clannad - Atlantic Realm.wav

Pre-gap length 0:00:02.00

Peak level 100.0 %
Extraction speed 3.5 X
Track quality 99.9 %
Test CRC 7F7EBD0F
Copy CRC 7F7EBD0F
Accurately ripped (confidence 8) [59917BDD] (AR v2)
Copy OK

Track 2

Filename D:\#EAC new\#wav+flac\#add\Clannad - In A Lifetime\cd 2\02. Clannad - Voyager.wav

Pre-gap length 0:00:02.26

Peak level 98.7 %
Extraction speed 3.6 X
Track quality 99.9 %
Test CRC A00C39B5
Copy CRC A00C39B5
Accurately ripped (confidence 8) [6936FA71] (AR v2)
Copy OK

Track 3

Filename D:\#EAC new\#wav+flac\#add\Clannad - In A Lifetime\cd 2\03. Clannad - A Dream In The Night (The Angel & The Soldier Boy).wav

Pre-gap length 0:00:00.76

Peak level 62.3 %
Extraction speed 3.8 X
Track quality 99.9 %
Test CRC 3C441C80
Copy CRC 3C441C80
Accurately ripped (confidence 8) [9BBF6F19] (AR v2)
Copy OK

Track 4

Filename D:\#EAC new\#wav+flac\#add\Clannad - In A Lifetime\cd 2\04. Clannad - Hourglass.wav

Pre-gap length 0:00:02.06

Peak level 96.0 %
Extraction speed 5.3 X
Track quality 100.0 %
Test CRC 355C92E9
Copy CRC 355C92E9
Accurately ripped (confidence 8) [6100C370] (AR v2)
Copy OK

Track 5

Filename D:\#EAC new\#wav+flac\#add\Clannad - In A Lifetime\cd 2\05. Clannad - Ri Na Cruinne.wav

Pre-gap length 0:00:01.57

Peak level 83.9 %
Extraction speed 4.7 X
Track quality 99.9 %
Test CRC 2A494211
Copy CRC 2A494211
Accurately ripped (confidence 8) [3BAB6579] (AR v2)
Copy OK

Track 6

Filename D:\#EAC new\#wav+flac\#add\Clannad - In A Lifetime\cd 2\06. Clannad - Poison Glen.wav

Pre-gap length 0:00:01.30

Peak level 88.9 %
Extraction speed 4.9 X
Track quality 99.9 %
Test CRC 70A2796C
Copy CRC 70A2796C
Accurately ripped (confidence 8) [6FAA60E7] (AR v2)
Copy OK

Track 7

Filename D:\#EAC new\#wav+flac\#add\Clannad - In A Lifetime\cd 2\07. Clannad - Na Laethe Ni.wav

Pre-gap length 0:00:02.34

Peak level 88.1 %
Extraction speed 6.5 X
Track quality 100.0 %
Test CRC EFC66857
Copy CRC EFC66857
Accurately ripped (confidence 8) [2FBD44F1] (AR v2)
Copy OK

Track 8

Filename D:\#EAC new\#wav+flac\#add\Clannad - In A Lifetime\cd 2\08. Clannad - I Will Find You (Theme From The Last Of The Mohicans).wav

Pre-gap length 0:00:02.92

Peak level 100.0 %
Extraction speed 6.8 X
Track quality 100.0 %
Test CRC 2BEBBE62
Copy CRC 2BEBBE62
Accurately ripped (confidence 8) [A794FDD7] (AR v2)
Copy OK

Track 9

Filename D:\#EAC new\#wav+flac\#add\Clannad - In A Lifetime\cd 2\09. Clannad - Croi Croga.wav

Pre-gap length 0:00:00.56

Peak level 99.7 %
Extraction speed 7.1 X
Track quality 100.0 %
Test CRC B322AD1B
Copy CRC B322AD1B
Accurately ripped (confidence 8) [1169AA6E] (AR v2)
Copy OK

Track 10

Filename D:\#EAC new\#wav+flac\#add\Clannad - In A Lifetime\cd 2\10. Clannad - A Bridge (That Carries Us Over).wav

Pre-gap length 0:00:01.66

Peak level 99.7 %
Extraction speed 7.3 X
Track quality 100.0 %
Test CRC 61168B3A
Copy CRC 61168B3A
Accurately ripped (confidence 8) [5C6BEBCE] (AR v2)
Copy OK

Track 11

Filename D:\#EAC new\#wav+flac\#add\Clannad - In A Lifetime\cd 2\11. Clannad - A Mhuirinin O.wav

Pre-gap length 0:00:01.18

Peak level 99.9 %
Extraction speed 7.7 X
Track quality 100.0 %
Test CRC 557B4A0E
Copy CRC 557B4A0E
Accurately ripped (confidence 8) [3C1E2B1E] (AR v2)
Copy OK

Track 12

Filename D:\#EAC new\#wav+flac\#add\Clannad - In A Lifetime\cd 2\12. Clannad - The Bridge Of Tears.wav

Pre-gap length 0:00:01.37

Peak level 98.2 %
Extraction speed 7.7 X
Track quality 100.0 %
Test CRC 3ED4657F
Copy CRC 3ED4657F
Accurately ripped (confidence 8) [AA3C9841] (AR v2)
Copy OK

Track 13

Filename D:\#EAC new\#wav+flac\#add\Clannad - In A Lifetime\cd 2\13. Clannad - Vellum.wav

Pre-gap length 0:00:00.62

Peak level 84.1 %
Extraction speed 8.1 X
Track quality 100.0 %
Test CRC 43199822
Copy CRC 43199822
Accurately ripped (confidence 8) [890CF003] (AR v2)
Copy OK

Track 14

Filename D:\#EAC new\#wav+flac\#add\Clannad - In A Lifetime\cd 2\14. Clannad - Brave Enough.wav

Pre-gap length 0:00:01.70

Peak level 74.9 %
Extraction speed 6.7 X
Track quality 99.9 %
Test CRC 05FDB1EC
Copy CRC 05FDB1EC
Accurately ripped (confidence 8) [4F943731] (AR v2)
Copy OK

Track 15

Filename D:\#EAC new\#wav+flac\#add\Clannad - In A Lifetime\cd 2\15. Clannad - A Celtic Dream.wav

Pre-gap length 0:00:00.18

Peak level 99.6 %
Extraction speed 8.7 X
Track quality 100.0 %
Test CRC EF4F8BEC
Copy CRC EF4F8BEC
Accurately ripped (confidence 8) [13866086] (AR v2)
Copy OK

Track 16

Filename D:\#EAC new\#wav+flac\#add\Clannad - In A Lifetime\cd 2\16. Clannad - Who Knows (Where The Time Goes).wav

Pre-gap length 0:00:00.62

Peak level 99.6 %
Extraction speed 5.9 X
Track quality 100.0 %
Test CRC 7E4D2323
Copy CRC 7E4D2323
Accurately ripped (confidence 8) [64502D10] (AR v2)
Copy OK


All tracks accurately ripped

No errors occurred

End of status report

–– CUETools DB Plugin V2.1.6

[CTDB TOCID: hJK6mS4e0KGfyiVPUA31Xu12yd8-] found
Submit result: hJK6mS4e0KGfyiVPUA31Xu12yd8- has been confirmed
Track | CTDB Status
1 | (51/51) Accurately ripped
2 | (51/51) Accurately ripped
3 | (51/51) Accurately ripped
4 | (51/51) Accurately ripped
5 | (51/51) Accurately ripped
6 | (51/51) Accurately ripped
7 | (51/51) Accurately ripped
8 | (51/51) Accurately ripped
9 | (51/51) Accurately ripped
10 | (51/51) Accurately ripped
11 | (51/51) Accurately ripped
12 | (51/51) Accurately ripped
13 | (51/51) Accurately ripped
14 | (51/51) Accurately ripped
15 | (51/51) Accurately ripped
16 | (47/51) Accurately ripped, or (2/51) differs in 580 samples @04:15:43-04:15:44


==== Log checksum 1C067CB74C04AFBDD857EE4BE10BB83D2CF37B48B95FA6DE0040BFCC131AFEAF ====

––––––––––––––––––––––––––––––

Exact Audio Copy V1.3 from 2. September 2016

EAC extraction logfile from 27. September 2020, 13:52

Clannad / In A Lifetime

Used drive : PLEXTOR PX-891SAF Adapter: 1 ID: 0

Read mode : Secure
Utilize accurate stream : Yes
Defeat audio cache : Yes
Make use of C2 pointers : No

Read offset correction : 6
Overread into Lead-In and Lead-Out : No
Fill up missing offset samples with silence : Yes
Delete leading and trailing silent blocks : No
Null samples used in CRC calculations : Yes
Used interface : Native Win32 interface for Win NT & 2000
Gap handling : Appended to previous track

Used output format : User Defined Encoder
Selected bitrate : 1024 kBit/s
Quality : High
Add ID3 tag : No
Command line compressor : C:\Program Files (x86)\Exact Audio Copy\Flac\flac.exe
Additional command line options : -8 -V -T "ARTIST=%artist%" -T "TITLE=%title%" -T "ALBUM=%albumtitle%" -T "DATE=%year%" -T "TRACKNUMBER=%tracknr%" -T "GENRE=%genre%" -T "PERFORMER=%albuminterpret%" -T "COMPOSER=%composer%" %haslyrics%–tag-from-file=LYRICS="%lyricsfile%"%haslyrics% -T "ALBUMARTIST=%albumartist%" -T "DISCNUMBER=%cdnumber%" -T "TOTALDISCS=%totalcds%" -T "TOTALTRACKS=%numtracks%" -T "COMMENT=%comment%" %source% -o %dest%


TOC of the extracted CD

Track | Start | Length | Start sector | End sector
––––––––––––––––––––––––––––-
1 | 0:00.00 | 3:49.32 | 0 | 17206
2 | 3:49.32 | 3:17.39 | 17207 | 32020
3 | 7:06.71 | 3:06.67 | 32021 | 46037
4 | 10:13.63 | 4:18.50 | 46038 | 65437
5 | 14:32.38 | 4:01.00 | 65438 | 83512
6 | 18:33.38 | 3:54.51 | 83513 | 101113
7 | 22:28.14 | 5:20.69 | 101114 | 125182
8 | 27:49.08 | 5:14.14 | 125183 | 148746
9 | 33:03.22 | 4:59.07 | 148747 | 171178
10 | 38:02.29 | 4:28.10 | 171179 | 191288
11 | 42:30.39 | 4:53.70 | 191289 | 213333
12 | 47:24.34 | 3:59.55 | 213334 | 231313
13 | 51:24.14 | 4:45.55 | 231314 | 252743
14 | 56:09.69 | 4:11.50 | 252744 | 271618
15 | 60:21.44 | 5:22.71 | 271619 | 295839
16 | 65:44.40 | 4:15.59 | 295840 | 315023


Track 1

Filename D:\#EAC new\#wav+flac\#add\Clannad - In A Lifetime\cd 2\01. Clannad - Atlantic Realm.wav

Pre-gap length 0:00:02.00

Peak level 100.0 %
Extraction speed 3.5 X
Track quality 99.9 %
Test CRC 7F7EBD0F
Copy CRC 7F7EBD0F
Accurately ripped (confidence 8) [59917BDD] (AR v2)
Copy OK

Track 2

Filename D:\#EAC new\#wav+flac\#add\Clannad - In A Lifetime\cd 2\02. Clannad - Voyager.wav

Pre-gap length 0:00:02.26

Peak level 98.7 %
Extraction speed 3.6 X
Track quality 99.9 %
Test CRC A00C39B5
Copy CRC A00C39B5
Accurately ripped (confidence 8) [6936FA71] (AR v2)
Copy OK

Track 3

Filename D:\#EAC new\#wav+flac\#add\Clannad - In A Lifetime\cd 2\03. Clannad - A Dream In The Night (The Angel & The Soldier Boy).wav

Pre-gap length 0:00:00.76

Peak level 62.3 %
Extraction speed 3.8 X
Track quality 99.9 %
Test CRC 3C441C80
Copy CRC 3C441C80
Accurately ripped (confidence 8) [9BBF6F19] (AR v2)
Copy OK

Track 4

Filename D:\#EAC new\#wav+flac\#add\Clannad - In A Lifetime\cd 2\04. Clannad - Hourglass.wav

Pre-gap length 0:00:02.06

Peak level 96.0 %
Extraction speed 5.3 X
Track quality 100.0 %
Test CRC 355C92E9
Copy CRC 355C92E9
Accurately ripped (confidence 8) [6100C370] (AR v2)
Copy OK

Track 5

Filename D:\#EAC new\#wav+flac\#add\Clannad - In A Lifetime\cd 2\05. Clannad - Ri Na Cruinne.wav

Pre-gap length 0:00:01.57

Peak level 83.9 %
Extraction speed 4.7 X
Track quality 99.9 %
Test CRC 2A494211
Copy CRC 2A494211
Accurately ripped (confidence 8) [3BAB6579] (AR v2)
Copy OK

Track 6

Filename D:\#EAC new\#wav+flac\#add\Clannad - In A Lifetime\cd 2\06. Clannad - Poison Glen.wav

Pre-gap length 0:00:01.30

Peak level 88.9 %
Extraction speed 4.9 X
Track quality 99.9 %
Test CRC 70A2796C
Copy CRC 70A2796C
Accurately ripped (confidence 8) [6FAA60E7] (AR v2)
Copy OK

Track 7

Filename D:\#EAC new\#wav+flac\#add\Clannad - In A Lifetime\cd 2\07. Clannad - Na Laethe Ni.wav

Pre-gap length 0:00:02.34

Peak level 88.1 %
Extraction speed 6.5 X
Track quality 100.0 %
Test CRC EFC66857
Copy CRC EFC66857
Accurately ripped (confidence 8) [2FBD44F1] (AR v2)
Copy OK

Track 8

Filename D:\#EAC new\#wav+flac\#add\Clannad - In A Lifetime\cd 2\08. Clannad - I Will Find You (Theme From The Last Of The Mohicans).wav

Pre-gap length 0:00:02.92

Peak level 100.0 %
Extraction speed 6.8 X
Track quality 100.0 %
Test CRC 2BEBBE62
Copy CRC 2BEBBE62
Accurately ripped (confidence 8) [A794FDD7] (AR v2)
Copy OK

Track 9

Filename D:\#EAC new\#wav+flac\#add\Clannad - In A Lifetime\cd 2\09. Clannad - Croi Croga.wav

Pre-gap length 0:00:00.56

Peak level 99.7 %
Extraction speed 7.1 X
Track quality 100.0 %
Test CRC B322AD1B
Copy CRC B322AD1B
Accurately ripped (confidence 8) [1169AA6E] (AR v2)
Copy OK

Track 10

Filename D:\#EAC new\#wav+flac\#add\Clannad - In A Lifetime\cd 2\10. Clannad - A Bridge (That Carries Us Over).wav

Pre-gap length 0:00:01.66

Peak level 99.7 %
Extraction speed 7.3 X
Track quality 100.0 %
Test CRC 61168B3A
Copy CRC 61168B3A
Accurately ripped (confidence 8) [5C6BEBCE] (AR v2)
Copy OK

Track 11

Filename D:\#EAC new\#wav+flac\#add\Clannad - In A Lifetime\cd 2\11. Clannad - A Mhuirinin O.wav

Pre-gap length 0:00:01.18

Peak level 99.9 %
Extraction speed 7.7 X
Track quality 100.0 %
Test CRC 557B4A0E
Copy CRC 557B4A0E
Accurately ripped (confidence 8) [3C1E2B1E] (AR v2)
Copy OK

Track 12

Filename D:\#EAC new\#wav+flac\#add\Clannad - In A Lifetime\cd 2\12. Clannad - The Bridge Of Tears.wav

Pre-gap length 0:00:01.37

Peak level 98.2 %
Extraction speed 7.7 X
Track quality 100.0 %
Test CRC 3ED4657F
Copy CRC 3ED4657F
Accurately ripped (confidence 8) [AA3C9841] (AR v2)
Copy OK

Track 13

Filename D:\#EAC new\#wav+flac\#add\Clannad - In A Lifetime\cd 2\13. Clannad - Vellum.wav

Pre-gap length 0:00:00.62

Peak level 84.1 %
Extraction speed 8.1 X
Track quality 100.0 %
Test CRC 43199822
Copy CRC 43199822
Accurately ripped (confidence 8) [890CF003] (AR v2)
Copy OK

Track 14

Filename D:\#EAC new\#wav+flac\#add\Clannad - In A Lifetime\cd 2\14. Clannad - Brave Enough.wav

Pre-gap length 0:00:01.70

Peak level 74.9 %
Extraction speed 6.7 X
Track quality 99.9 %
Test CRC 05FDB1EC
Copy CRC 05FDB1EC
Accurately ripped (confidence 8) [4F943731] (AR v2)
Copy OK

Track 15

Filename D:\#EAC new\#wav+flac\#add\Clannad - In A Lifetime\cd 2\15. Clannad - A Celtic Dream.wav

Pre-gap length 0:00:00.18

Peak level 99.6 %
Extraction speed 8.7 X
Track quality 100.0 %
Test CRC EF4F8BEC
Copy CRC EF4F8BEC
Accurately ripped (confidence 8) [13866086] (AR v2)
Copy OK

Track 16

Filename D:\#EAC new\#wav+flac\#add\Clannad - In A Lifetime\cd 2\16. Clannad - Who Knows (Where The Time Goes).wav

Pre-gap length 0:00:00.62

Peak level 99.6 %
Extraction speed 5.9 X
Track quality 100.0 %
Test CRC 7E4D2323
Copy CRC 7E4D2323
Accurately ripped (confidence 8) [64502D10] (AR v2)
Copy OK


All tracks accurately ripped

No errors occurred

End of status report

–– CUETools DB Plugin V2.1.6

[CTDB TOCID: hJK6mS4e0KGfyiVPUA31Xu12yd8-] found
Submit result: hJK6mS4e0KGfyiVPUA31Xu12yd8- has been confirmed
Track | CTDB Status
1 | (51/51) Accurately ripped
2 | (51/51) Accurately ripped
3 | (51/51) Accurately ripped
4 | (51/51) Accurately ripped
5 | (51/51) Accurately ripped
6 | (51/51) Accurately ripped
7 | (51/51) Accurately ripped
8 | (51/51) Accurately ripped
9 | (51/51) Accurately ripped
10 | (51/51) Accurately ripped
11 | (51/51) Accurately ripped
12 | (51/51) Accurately ripped
13 | (51/51) Accurately ripped
14 | (51/51) Accurately ripped
15 | (51/51) Accurately ripped
16 | (47/51) Accurately ripped, or (2/51) differs in 580 samples @04:15:43-04:15:44


==== Log checksum 1C067CB74C04AFBDD857EE4BE10BB83D2CF37B48B95FA6DE0040BFCC131AFEAF ====

Thanks to the Original ripper !