Subcategories

Clark Terry & Bob Brookmeyer Quintet - Complete Studio Recordings (2015) {2CD Phono-Mainstream 870232 rec 1964-1966}

Posted By: ruskaval
Clark Terry & Bob Brookmeyer Quintet - Complete Studio Recordings (2015) {2CD Phono-Mainstream 870232 rec 1964-1966}

Clark Terry & Bob Brookmeyer Quintet - Complete Studio Recordings (2015) {2CD Phono-Mainstream 870232 rec 1964-1966}
EAC rip (secure mode) | FLAC (tracks)+CUE+LOG -> 776 Mb | MP3 @320 -> 304 Mb
Full Artwork @ 600 dpi (jpg) -> 329 Mb | 5% repair rar
© 1964-66, 2015 Phono / Mainstream | 870232 | 24bit remastering
Jazz / Bop / Mainstream Jazz / Trumpet / Trombone

This release contains all studio recordings by the brilliant quintet fronted by CLARK TERRY and BOB BROOKMEYER. This material was originally released on three albums which are presented here in their entireties.

All Of The Terry/Brookmeyer Quintets Studio Recordings for the first time ever on CD. Three Complete Albums on 2-CD Set including the albums:

- Tonight - Clark Terry / Bobby Brookmeyer Quintet (1964)
- The Power Of Positive Swinging (1965)
- Gingerbread Men (1966)

Two of the most superlative horn players of their respective instruments, Clark Terry and Bob Brookmeyers stellar collaboration includes nearly 50 separate recordings, the majority of which were made as sidemen.

This Phenomenal 2-CD Set features ALL of the studio recordings that these 2 giants made with their superlative quintet prior to the bands break up in 1966. This is the first time ever that their three outstanding studio sessions recorded between 1964 and 1966 are available on one edition.

PERSONNEL:

CLARK TERRY, trumpet & flugelhorn
BOB BROOKMEYER, valve trombone
ROGER KELLAWAY, piano
BILL CROW, bass
DAVE BAILEY, drums


CD1, 1-10: TONIGHT

CD1, 11-15 & CD2, 1-4: THE POWER OF POSITIVE SWINGING

CD2, 5-13: GINGERBREAD MEN

HANK JONES, piano (replaces Kellaway)
BOB CRANSHAW, bass (replaces Crow)

Tracklisting:

CD1

01. Tete a tete
02. Pretty girl
03. Blue China
04. Hum
05. Blindman, blindman
06. Step right up
07. Weep
08. Straight no chaser
09. Sometime ago
10. Hymn
11. Dancing on the Grave
12. Battle Hymn of the Republic
13. The King
14. Ode to a Flugelhorn
15. Gal in Calico

Clark Terry & Bob Brookmeyer Quintet - Complete Studio Recordings (2015) {2CD Phono-Mainstream 870232 rec 1964-1966}


CD2
01. Green Stamps
02. Hawg Jawz
03. Simple Waltz
04. Just an Old Manuscript
05. Haig & Haig
06. I Want a Little Girl
07. Mood Indigo
08. Milo's Other Samba
09. Gingerbread Boy
10. My Gal
11. Naptown
12. Morning Mist
13. Bye Bye Blackbird

Clark Terry & Bob Brookmeyer Quintet - Complete Studio Recordings (2015) {2CD Phono-Mainstream 870232 rec 1964-1966}


Exact Audio Copy V1.1 from 23. June 2015

EAC extraction logfile from 21. October 2017, 20:44

Clark Terry & Bob Brookmeyer Quintet / Complete Studio Recordings (CD1)

Used drive : TSSTcorpCDDVDW SE-208DB Adapter: 1 ID: 1

Read mode : Secure
Utilize accurate stream : Yes
Defeat audio cache : Yes
Make use of C2 pointers : No

Read offset correction : 6
Overread into Lead-In and Lead-Out : No
Fill up missing offset samples with silence : Yes
Delete leading and trailing silent blocks : No
Null samples used in CRC calculations : Yes
Used interface : Native Win32 interface for Win NT & 2000
Gap handling : Appended to previous track

Used output format : User Defined Encoder
Selected bitrate : 1024 kBit/s
Quality : High
Add ID3 tag : No
Command line compressor : C:\Program Files (x86)\FLAC Frontend\tools\flac.exe
Additional command line options : -8 -V -T "ARTIST=%artist%" -T "TITLE=%title%" -T "ALBUM=%albumtitle%" -T "DATE=%year%" -T "TRACKNUMBER=%tracknr%" -T "TOTALTRACKS=%numtracks%" -T "GENRE=%genre%" -T "ALBUMARTIST=%albumartist%" -T "ALBUM ARTIST=%albumartist%" -T "COMMENT=EAC Secure Mode, Test & Copy, AccurateRip, FLAC -8" %source%


TOC of the extracted CD

Track | Start | Length | Start sector | End sector
––––––––––––––––––––––––––––-
1 | 0:00.00 | 4:47.35 | 0 | 21559
2 | 4:47.35 | 3:27.60 | 21560 | 37144
3 | 8:15.20 | 4:42.15 | 37145 | 58309
4 | 12:57.35 | 5:25.70 | 58310 | 82754
5 | 18:23.30 | 3:08.15 | 82755 | 96869
6 | 21:31.45 | 6:10.45 | 96870 | 124664
7 | 27:42.15 | 5:15.15 | 124665 | 148304
8 | 32:57.30 | 3:28.00 | 148305 | 163904
9 | 36:25.30 | 4:42.40 | 163905 | 185094
10 | 41:07.70 | 3:58.32 | 185095 | 202976
11 | 45:06.27 | 2:31.17 | 202977 | 214318
12 | 47:37.44 | 3:29.42 | 214319 | 230035
13 | 51:07.11 | 5:41.47 | 230036 | 255657
14 | 56:48.58 | 5:36.27 | 255658 | 280884
15 | 62:25.10 | 6:05.17 | 280885 | 308276


Track 1

Filename D:\_EAC\Clark Terry & Bob Brookmeyer Quintet - Complete Studio Recordings (2015) [FLAC]\CD1\01 - Tete A Tete.wav

Pre-gap length 0:00:02.00

Peak level 96.0 %
Extraction speed 1.0 X
Track quality 99.9 %
Test CRC A6A655BD
Copy CRC A6A655BD
Accurately ripped (confidence 2) [E0EB8852] (AR v2)
Copy OK

Track 2

Filename D:\_EAC\Clark Terry & Bob Brookmeyer Quintet - Complete Studio Recordings (2015) [FLAC]\CD1\02 - Pretty Girl.wav

Peak level 54.8 %
Extraction speed 1.0 X
Track quality 99.9 %
Test CRC 2E9582E8
Copy CRC 2E9582E8
Accurately ripped (confidence 2) [F0FAB62F] (AR v2)
Copy OK

Track 3

Filename D:\_EAC\Clark Terry & Bob Brookmeyer Quintet - Complete Studio Recordings (2015) [FLAC]\CD1\03 - Blue China.wav

Peak level 71.3 %
Extraction speed 1.2 X
Track quality 99.9 %
Test CRC E576309D
Copy CRC E576309D
Accurately ripped (confidence 2) [F2D714C8] (AR v2)
Copy OK

Track 4

Filename D:\_EAC\Clark Terry & Bob Brookmeyer Quintet - Complete Studio Recordings (2015) [FLAC]\CD1\04 - Hum.wav

Peak level 89.1 %
Extraction speed 1.4 X
Track quality 100.0 %
Test CRC 03D88DD5
Copy CRC 03D88DD5
Accurately ripped (confidence 2) [8CABE9B1] (AR v2)
Copy OK

Track 5

Filename D:\_EAC\Clark Terry & Bob Brookmeyer Quintet - Complete Studio Recordings (2015) [FLAC]\CD1\05 - Blindman, Blindman.wav

Peak level 94.6 %
Extraction speed 1.1 X
Track quality 99.9 %
Test CRC BA77DBAB
Copy CRC BA77DBAB
Accurately ripped (confidence 2) [AA82C2DF] (AR v2)
Copy OK

Track 6

Filename D:\_EAC\Clark Terry & Bob Brookmeyer Quintet - Complete Studio Recordings (2015) [FLAC]\CD1\06 - Step Right Up.wav

Peak level 100.0 %
Extraction speed 1.6 X
Track quality 100.0 %
Test CRC F43A7D72
Copy CRC F43A7D72
Accurately ripped (confidence 2) [793424CB] (AR v2)
Copy OK

Track 7

Filename D:\_EAC\Clark Terry & Bob Brookmeyer Quintet - Complete Studio Recordings (2015) [FLAC]\CD1\07 - Weep.wav

Peak level 77.4 %
Extraction speed 1.6 X
Track quality 100.0 %
Test CRC 156E6716
Copy CRC 156E6716
Accurately ripped (confidence 2) [F7B774B3] (AR v2)
Copy OK

Track 8

Filename D:\_EAC\Clark Terry & Bob Brookmeyer Quintet - Complete Studio Recordings (2015) [FLAC]\CD1\08 - Straight, No Chaser.wav

Peak level 75.8 %
Extraction speed 1.5 X
Track quality 100.0 %
Test CRC 20CE4C97
Copy CRC 20CE4C97
Accurately ripped (confidence 2) [357F3FA5] (AR v2)
Copy OK

Track 9

Filename D:\_EAC\Clark Terry & Bob Brookmeyer Quintet - Complete Studio Recordings (2015) [FLAC]\CD1\09 - Sometime Ago.wav

Peak level 62.0 %
Extraction speed 1.5 X
Track quality 99.9 %
Test CRC 51770BED
Copy CRC 51770BED
Accurately ripped (confidence 2) [A53269CB] (AR v2)
Copy OK

Track 10

Filename D:\_EAC\Clark Terry & Bob Brookmeyer Quintet - Complete Studio Recordings (2015) [FLAC]\CD1\10 - Hymn.wav

Peak level 81.1 %
Extraction speed 1.7 X
Track quality 100.0 %
Test CRC 0B2B5D5F
Copy CRC 0B2B5D5F
Accurately ripped (confidence 2) [D97D1FCC] (AR v2)
Copy OK

Track 11

Filename D:\_EAC\Clark Terry & Bob Brookmeyer Quintet - Complete Studio Recordings (2015) [FLAC]\CD1\11 - Dancing On The Grave.wav

Peak level 83.8 %
Extraction speed 1.6 X
Track quality 100.0 %
Test CRC 971D5733
Copy CRC 971D5733
Accurately ripped (confidence 2) [FEB6A42A] (AR v2)
Copy OK

Track 12

Filename D:\_EAC\Clark Terry & Bob Brookmeyer Quintet - Complete Studio Recordings (2015) [FLAC]\CD1\12 - Battle Hymn Of The Republic.wav

Peak level 81.9 %
Extraction speed 1.7 X
Track quality 100.0 %
Test CRC 1170E3D5
Copy CRC 1170E3D5
Accurately ripped (confidence 2) [2DF2FA64] (AR v2)
Copy OK

Track 13

Filename D:\_EAC\Clark Terry & Bob Brookmeyer Quintet - Complete Studio Recordings (2015) [FLAC]\CD1\13 - The King.wav

Peak level 97.2 %
Extraction speed 1.7 X
Track quality 99.9 %
Test CRC 92C80133
Copy CRC 92C80133
Accurately ripped (confidence 2) [B5E1BB89] (AR v2)
Copy OK

Track 14

Filename D:\_EAC\Clark Terry & Bob Brookmeyer Quintet - Complete Studio Recordings (2015) [FLAC]\CD1\14 - Ode To A Flugelhorn.wav

Peak level 96.4 %
Extraction speed 2.0 X
Track quality 100.0 %
Test CRC F32AB267
Copy CRC F32AB267
Accurately ripped (confidence 2) [8781E5F8] (AR v2)
Copy OK

Track 15

Filename D:\_EAC\Clark Terry & Bob Brookmeyer Quintet - Complete Studio Recordings (2015) [FLAC]\CD1\15 - Gal In Calico.wav

Peak level 95.9 %
Extraction speed 1.8 X
Track quality 99.9 %
Test CRC 71D05002
Copy CRC 71D05002
Accurately ripped (confidence 2) [BF0C02E3] (AR v2)
Copy OK


All tracks accurately ripped

No errors occurred

End of status report

–– CUETools DB Plugin V2.1.6

[CTDB TOCID: Sd1jkdLb4FpTzpFzeTfJ.4Noq8Y-] found
Submit result: already submitted
Track | CTDB Status
1 | (6/6) Accurately ripped
2 | (6/6) Accurately ripped
3 | (6/6) Accurately ripped
4 | (6/6) Accurately ripped
5 | (6/6) Accurately ripped
6 | (6/6) Accurately ripped
7 | (6/6) Accurately ripped
8 | (6/6) Accurately ripped
9 | (6/6) Accurately ripped
10 | (6/6) Accurately ripped
11 | (6/6) Accurately ripped
12 | (6/6) Accurately ripped
13 | (6/6) Accurately ripped
14 | (6/6) Accurately ripped
15 | (6/6) Accurately ripped


==== Log checksum ADBC3B5F582B6EF98E25C7EABC5AD6E274D24E1A7B95AD3D23CE74F36866571A ====

Exact Audio Copy V1.1 from 23. June 2015

EAC extraction logfile from 21. October 2017, 22:21

Clark Terry & Bob Brookmeyer Quintet / Complete Studio Recordings (CD2)

Used drive : TSSTcorpCDDVDW SE-208DB Adapter: 1 ID: 1

Read mode : Secure
Utilize accurate stream : Yes
Defeat audio cache : Yes
Make use of C2 pointers : No

Read offset correction : 6
Overread into Lead-In and Lead-Out : No
Fill up missing offset samples with silence : Yes
Delete leading and trailing silent blocks : No
Null samples used in CRC calculations : Yes
Used interface : Native Win32 interface for Win NT & 2000
Gap handling : Appended to previous track

Used output format : User Defined Encoder
Selected bitrate : 1024 kBit/s
Quality : High
Add ID3 tag : No
Command line compressor : C:\Program Files (x86)\FLAC Frontend\tools\flac.exe
Additional command line options : -8 -V -T "ARTIST=%artist%" -T "TITLE=%title%" -T "ALBUM=%albumtitle%" -T "DATE=%year%" -T "TRACKNUMBER=%tracknr%" -T "TOTALTRACKS=%numtracks%" -T "GENRE=%genre%" -T "ALBUMARTIST=%albumartist%" -T "ALBUM ARTIST=%albumartist%" -T "COMMENT=EAC Secure Mode, Test & Copy, AccurateRip, FLAC -8" %source%


TOC of the extracted CD

Track | Start | Length | Start sector | End sector
––––––––––––––––––––––––––––-
1 | 0:00.00 | 5:08.32 | 0 | 23131
2 | 5:08.32 | 2:24.62 | 23132 | 33993
3 | 7:33.19 | 5:18.62 | 33994 | 57905
4 | 12:52.06 | 7:34.57 | 57906 | 92012
5 | 20:26.63 | 4:30.60 | 92013 | 112322
6 | 24:57.48 | 4:11.65 | 112323 | 131212
7 | 29:09.38 | 6:52.50 | 131213 | 162162
8 | 36:02.13 | 2:52.05 | 162163 | 175067
9 | 38:54.18 | 2:40.65 | 175068 | 187132
10 | 41:35.08 | 5:55.45 | 187133 | 213802
11 | 47:30.53 | 5:29.70 | 213803 | 238547
12 | 53:00.48 | 3:16.70 | 238548 | 253317
13 | 56:17.43 | 6:50.22 | 253318 | 284089


Track 1

Filename D:\_EAC\Clark Terry & Bob Brookmeyer Quintet - Complete Studio Recordings (2015) [FLAC]\CD2\01 - Green Stamps.wav

Pre-gap length 0:00:02.00

Peak level 100.0 %
Extraction speed 2.6 X
Track quality 99.9 %
Test CRC D3B81C32
Copy CRC D3B81C32
Accurately ripped (confidence 2) [B94C7190] (AR v2)
Copy OK

Track 2

Filename D:\_EAC\Clark Terry & Bob Brookmeyer Quintet - Complete Studio Recordings (2015) [FLAC]\CD2\02 - Hawg Jawz.wav

Peak level 77.7 %
Extraction speed 2.9 X
Track quality 100.0 %
Test CRC 1BD77517
Copy CRC 1BD77517
Accurately ripped (confidence 2) [1686C2BD] (AR v2)
Copy OK

Track 3

Filename D:\_EAC\Clark Terry & Bob Brookmeyer Quintet - Complete Studio Recordings (2015) [FLAC]\CD2\03 - Simple Waltz.wav

Peak level 96.1 %
Extraction speed 3.6 X
Track quality 100.0 %
Test CRC AED37B20
Copy CRC AED37B20
Accurately ripped (confidence 2) [09A95180] (AR v2)
Copy OK

Track 4

Filename D:\_EAC\Clark Terry & Bob Brookmeyer Quintet - Complete Studio Recordings (2015) [FLAC]\CD2\04 - Just An Old Manuscript.wav

Peak level 100.0 %
Extraction speed 4.0 X
Track quality 100.0 %
Test CRC AF85B49E
Copy CRC AF85B49E
Accurately ripped (confidence 2) [375054C4] (AR v2)
Copy OK

Track 5

Filename D:\_EAC\Clark Terry & Bob Brookmeyer Quintet - Complete Studio Recordings (2015) [FLAC]\CD2\05 - Haig & Haig.wav

Peak level 82.9 %
Extraction speed 4.1 X
Track quality 100.0 %
Test CRC 68610678
Copy CRC 68610678
Accurately ripped (confidence 2) [827204F8] (AR v2)
Copy OK

Track 6

Filename D:\_EAC\Clark Terry & Bob Brookmeyer Quintet - Complete Studio Recordings (2015) [FLAC]\CD2\06 - I Want A Little Girl.wav

Peak level 75.9 %
Extraction speed 4.3 X
Track quality 100.0 %
Test CRC CA54C86F
Copy CRC CA54C86F
Accurately ripped (confidence 2) [F19625E4] (AR v2)
Copy OK

Track 7

Filename D:\_EAC\Clark Terry & Bob Brookmeyer Quintet - Complete Studio Recordings (2015) [FLAC]\CD2\07 - Mood Indigo.wav

Peak level 69.7 %
Extraction speed 4.2 X
Track quality 99.9 %
Test CRC CE9512AD
Copy CRC CE9512AD
Accurately ripped (confidence 2) [101405B0] (AR v2)
Copy OK

Track 8

Filename D:\_EAC\Clark Terry & Bob Brookmeyer Quintet - Complete Studio Recordings (2015) [FLAC]\CD2\08 - Milo's Other Samba.wav

Peak level 80.7 %
Extraction speed 4.5 X
Track quality 100.0 %
Test CRC B6BFA467
Copy CRC B6BFA467
Accurately ripped (confidence 2) [4AED4983] (AR v2)
Copy OK

Track 9

Filename D:\_EAC\Clark Terry & Bob Brookmeyer Quintet - Complete Studio Recordings (2015) [FLAC]\CD2\09 - Gingerbread Boy.wav

Pre-gap length 0:00:00.01

Peak level 66.3 %
Extraction speed 4.5 X
Track quality 100.0 %
Test CRC 1D8DF371
Copy CRC 1D8DF371
Accurately ripped (confidence 2) [78CAC118] (AR v2)
Copy OK

Track 10

Filename D:\_EAC\Clark Terry & Bob Brookmeyer Quintet - Complete Studio Recordings (2015) [FLAC]\CD2\10 - My Gal.wav

Peak level 73.9 %
Extraction speed 5.2 X
Track quality 100.0 %
Test CRC C84EB0D4
Copy CRC C84EB0D4
Accurately ripped (confidence 2) [8290897C] (AR v2)
Copy OK

Track 11

Filename D:\_EAC\Clark Terry & Bob Brookmeyer Quintet - Complete Studio Recordings (2015) [FLAC]\CD2\11 - Naptown.wav

Peak level 66.3 %
Extraction speed 5.4 X
Track quality 100.0 %
Test CRC 9FFCF0E9
Copy CRC 9FFCF0E9
Accurately ripped (confidence 2) [A6EF009A] (AR v2)
Copy OK

Track 12

Filename D:\_EAC\Clark Terry & Bob Brookmeyer Quintet - Complete Studio Recordings (2015) [FLAC]\CD2\12 - Morning Mist.wav

Peak level 53.6 %
Extraction speed 5.2 X
Track quality 100.0 %
Test CRC 9A007B23
Copy CRC 9A007B23
Accurately ripped (confidence 2) [A7C8F1D9] (AR v2)
Copy OK

Track 13

Filename D:\_EAC\Clark Terry & Bob Brookmeyer Quintet - Complete Studio Recordings (2015) [FLAC]\CD2\13 - Bye Bye Blackbird.wav

Peak level 92.2 %
Extraction speed 5.8 X
Track quality 100.0 %
Test CRC ADE6E5B3
Copy CRC ADE6E5B3
Accurately ripped (confidence 2) [0F573860] (AR v2)
Copy OK


All tracks accurately ripped

No errors occurred

End of status report

–– CUETools DB Plugin V2.1.6

[CTDB TOCID: PkDiYhrhr4GLrR3z23D37tAJ1g4-] found
Submit result: PkDiYhrhr4GLrR3z23D37tAJ1g4- has been confirmed
Track | CTDB Status
1 | (5/5) Accurately ripped
2 | (5/5) Accurately ripped
3 | (5/5) Accurately ripped
4 | (5/5) Accurately ripped
5 | (5/5) Accurately ripped
6 | (5/5) Accurately ripped
7 | (5/5) Accurately ripped
8 | (5/5) Accurately ripped
9 | (5/5) Accurately ripped
10 | (5/5) Accurately ripped
11 | (5/5) Accurately ripped
12 | (5/5) Accurately ripped
13 | (5/5) Accurately ripped


==== Log checksum 0E8DEA7EBF8E37A93ECD9D71E023922098EE8BAD51904B563505E75ECD535591 ====


special thanks to 0xxa…

Clark Terry & Bob Brookmeyer Quintet - Complete Studio Recordings (2015) {2CD Phono-Mainstream 870232 rec 1964-1966}



===