Subcategories

Club des Belugas - Fishing For Zebras (2014)

Posted By: LoveHive
Club des Belugas - Fishing For Zebras (2014)

Club des Belugas - Fishing For Zebras (2014)
Soul, Nu Jazz, Electro Swing | FLAC lossless (384 MB) | image+.cue | Scans (74 MB) | 01:02:23
Label: ChinChin Records | cat. no. 2099

From way back in 2002 Club des Belugas has become one of the leading Nu-Jazz bands in Europe, most probably in the world. Now theypresent their 8th studio album featuring a ton of women power! This fantastic and outstanding album shows another side of Club des Belugasmusic, which is revealed by its distinctive and original cover artwork style. Less Jazz and Latin, and more Electronics, Guitars and Triphopelements!
Taking 2 years to produce in their new state of the Art studio, Club des Belugas takes us, the listener on the next journey into thefuture sounds of Nu-Jazz and Electro. Never an imitator, always an innovator, Club des Belugas adds some of the world´s most outstandingand imminent Vocalists: Brenda Boykin, the powerful vocals from our Californian soul jazz diva Anna-Luca, fragile vocals from Sweden VeronikaHarcsa, famous Hungarian jazz & trip-hop singer Lene Riebau, broken jazz vocals from Denmark Helene Vogelsinger, wistful vocals from FranceJean Honeymoon, cool vocals from Scotland Lastly and not to forget, 3 powerful and absolutely danceable instrumentals are included. Take aseat, kick back and listen to one of most anticipated Albums of 2014!



Tracklist:
01. Never Think Twice [06:42]
02. Let's Go [04:40]
03. Weapon on Voice [04:47]
04. Path of Nothing [04:13]
05. Home Alone [03:49]
06. Welcome to Brazil [04:40]
07. Iko Iko [05:58]
08. The Lady Was To Blame [03:47]
09. The Secret [04:08]
10. Just Me and My Dog [03:55]
11. Braves at Home [03:54]
12. Hug Somebody But You [04:39]
13. Please don't tease [03:38]
14. Bittersweet [03:57]

Exact Audio Copy V1.0 beta 3 from 29. August 2011

EAC extraction logfile from 15. December 2014, 9:39

Club des Belugas / Fishing For Zebras

Used drive: PLEXTOR CD-R PREMIUM2 Adapter: 0 ID: 0

Read mode : Secure
Utilize accurate stream : Yes
Defeat audio cache : Yes
Make use of C2 pointers : No

Read offset correction : 30
Overread into Lead-In and Lead-Out : No
Fill up missing offset samples with silence : Yes
Delete leading and trailing silent blocks : No
Null samples used in CRC calculations : Yes
Used interface : Native Win32 interface for Win NT & 2000

Used output format : User Defined Encoder
Selected bitrate : 1024 kBit/s
Quality : High
Add ID3 tag : Yes
Command line compressor : C:\Program Files (x86)\FLAC Frontend\tools\flac.exe
Additional command line options : -8 -V -T "TITLE=%title%" -T "ARTIST=%artist%" -T "ALBUMARTIST=%albumartist%" -T "ALBUM=%albumtitle%" -T "DATE=%year%" -T "TRACKNUMBER=%tracknr%" -T "TRACKTOTAL=%numtracks%" -T "GENRE=%genre%" -T "COMMENT=%comment%" -T "PERFORMER=%albuminterpret%" -T "COMPOSER=%composer%" %source% -o %dest%


TOC of the extracted CD

Track | Start | Length | Start sector | End sector
––––––––––––––––––––––––––––––––––-
1 | 0:00.00 | 6:42.25 | 0 | 30174
2 | 6:42.25 | 4:40.55 | 30175 | 51229
3 | 11:23.05 | 4:47.27 | 51230 | 72781
4 | 16:10.32 | 4:13.08 | 72782 | 91764
5 | 20:23.40 | 3:49.37 | 91765 | 108976
6 | 24:13.02 | 4:40.73 | 108977 | 130049
7 | 28:54.00 | 5:58.56 | 130050 | 156955
8 | 34:52.56 | 3:47.00 | 156956 | 173980
9 | 38:39.56 | 4:08.30 | 173981 | 192610
10 | 42:48.11 | 3:55.47 | 192611 | 210282
11 | 46:43.58 | 3:54.32 | 210283 | 227864
12 | 50:38.15 | 4:39.32 | 227865 | 248821
13 | 55:17.47 | 3:38.13 | 248822 | 265184
14 | 58:55.60 | 3:57.59 | 265185 | 283018


Range status and errors

Selected range

Filename C:\AvaxHome\Club des Belugas - Fishing For Zebras.wav

Peak level 96.6 %
Range quality 100.0 %
Test CRC 891C48C3
Copy CRC 891C48C3
Copy… OK

No errors occurred


AccurateRip: summary

Track 1 : accurately ripped (confidence 1) [80F469D4] (AR v2)
Track 2 : accurately ripped (confidence 1) [56392C18] (AR v2)
Track 3 : accurately ripped (confidence 1) [FA76BDB8] (AR v2)
Track 4 : accurately ripped (confidence 1) [F537FBB1] (AR v2)
Track 5 : accurately ripped (confidence 1) [8F39F7B5] (AR v2)
Track 6 : accurately ripped (confidence 1) [F4555D58] (AR v2)
Track 7 : accurately ripped (confidence 1) [BF449770] (AR v2)
Track 8 : accurately ripped (confidence 1) [A5CF8730] (AR v2)
Track 9 : accurately ripped (confidence 1) [8EF537CD] (AR v2)
Track 10 : accurately ripped (confidence 1) [683B40AA] (AR v2)
Track 11 : accurately ripped (confidence 1) [D816A84A] (AR v2)
Track 12 : accurately ripped (confidence 1) [F45C2518] (AR v2)
Track 13 : accurately ripped (confidence 1) [BF4F26D1] (AR v2)
Track 14 : accurately ripped (confidence 1) [B1F8F500] (AR v2)

All tracks accurately ripped

End of status report


All thanks to pishin

Download Club des Belugas - Fishings For Zebras (2014):