Subcategories

Clutch - Blast Tyrant (2004) RESTORED

Posted By: Necromandus
Clutch - Blast Tyrant (2004) RESTORED

Clutch - Blast Tyrant (2004)
EAC Rip | FLAC, IMG+CUE+LOG | 440 MB | MP3 CBR 320 Kbps | 140 MB | Complete HQ Scans | PNG -> 50 MB
Stoner Rock | Label: DRT Entertainment/Fontana #RTE410 | RAR 3% Rec. | FilePost

"If you've never been a fan of Clutch, Blast Tyrant would not be a bad place to start. It is their most consistently satisfying release since their highly regarded second self titled release. Each track on the album seems to have something special to offer with the two track back-to-back combo of "Promoter" and "Regulator" standing out with a particularly excellent flow. It might seem odd that a band more than twelve years deep into their musical career may just now be reaching their creative peak. The slow and steady rise of both Clutch's popularity and their own creative capabilities have paid off considerably with this release. Enjoy the rock."

~ StonerRock.com
Tracklist :

1. Mercury – 3:00
2. Profits of Doom – 3:12
3. The Mob Goes Wild – 3:32
4. Cypress Grove – 2:45
5. Promoter (of Earthbound Causes) – 3:14
6. The Regulator – 5:25
7. Worm Drink – 3:13
8. Army of Bono – 4:36
9. Spleen Merchant – 2:38
10. (In the Wake of) The Swollen Goat – 3:01
11. Weathermaker – 0:47
12. Subtle Hustle – 2:46
13. Ghost – 4:37
14. (Notes from the Trial of) La Curandera – 5:49
15. WYSIWYG – 5:49

Exact Audio Copy V0.99 prebeta 4 from 23. January 2008

EAC extraction logfile from 15. November 2008, 23:12

Clutch / Blast Tyrant

Used drive : HP DVD Writer 1040d Adapter: 2 ID: 0

Read mode : Secure
Utilize accurate stream : Yes
Defeat audio cache : Yes
Make use of C2 pointers : No

Read offset correction : 6
Overread into Lead-In and Lead-Out : No
Fill up missing offset samples with silence : Yes
Delete leading and trailing silent blocks : No
Null samples used in CRC calculations : Yes
Used interface : Native Win32 interface for Win NT & 2000

Used output format : Monkey's Audio Lossless Encoder
Selected bitrate : High Lossless Compression
Quality : High
Add ID3 tag : Yes
Command line compressor : C:\Program Files\Monkey's Audio\MAC.exe


TOC of the extracted CD

Track | Start | Length | Start sector | End sector
––––––––––––––––––––––––––––-
1 | 0:00.00 | 3:00.28 | 0 | 13527
2 | 3:00.28 | 3:12.57 | 13528 | 27984
3 | 6:13.10 | 3:32.25 | 27985 | 43909
4 | 9:45.35 | 2:45.57 | 43910 | 56341
5 | 12:31.17 | 3:14.09 | 56342 | 70900
6 | 15:45.26 | 5:25.02 | 70901 | 95277
7 | 21:10.28 | 3:13.69 | 95278 | 109821
8 | 24:24.22 | 4:36.38 | 109822 | 130559
9 | 29:00.60 | 2:38.28 | 130560 | 142437
10 | 31:39.13 | 3:01.56 | 142438 | 156068
11 | 34:40.69 | 0:47.41 | 156069 | 159634
12 | 35:28.35 | 2:46.69 | 159635 | 172153
13 | 38:15.29 | 4:37.68 | 172154 | 192996
14 | 42:53.22 | 5:49.20 | 192997 | 219191
15 | 48:42.42 | 5:49.32 | 219192 | 245398


Range status and errors

Selected range

Filename C:\Documents and Settings\ibo\Мои документы\audio\Clutch - 2004 - Blast Tyrant\Clutch - Blast Tyrant.wav

Peak level 100.0 %
Range quality 100.0 %
Test CRC E06C989E
Copy CRC E06C989E
Copy OK

No errors occurred


AccurateRip summary

Track 1 accurately ripped (confidence 3) [59313737]
Track 2 accurately ripped (confidence 3) [F8BE6316]
Track 3 accurately ripped (confidence 3) [D399A1F7]
Track 4 accurately ripped (confidence 3) [6B0513D6]
Track 5 accurately ripped (confidence 3) [CCB0A9E5]
Track 6 accurately ripped (confidence 3) [26ABE1EA]
Track 7 accurately ripped (confidence 3) [176FCAD9]
Track 8 accurately ripped (confidence 3) [16596201]
Track 9 accurately ripped (confidence 3) [67F502B7]
Track 10 accurately ripped (confidence 3) [C7D760E4]
Track 11 accurately ripped (confidence 3) [5E679D09]
Track 12 accurately ripped (confidence 3) [EF0D02C6]
Track 13 accurately ripped (confidence 3) [139AEC86]
Track 14 accurately ripped (confidence 3) [161495DA]
Track 15 accurately ripped (confidence 3) [6EE192BC]

All tracks accurately ripped

End of status report

–––––––––––-

DON'T MODIFY THIS FILE

–––––––––––-

PERFORMER: auCDtect Task Manager, ver. 1.5.1RC3 build 1.5.1.4
Copyright © 2008-2010 y-soft. All rights reserved
http://y-soft.org

ANALYZER: auCDtect: CD records authenticity detector, version 0.8.2
Copyright © 2004 Oleg Berngardt. All rights reserved.
Copyright © 2004 Alexander Djourik. All rights reserved.


FILE: Clutch - Blast Tyrant.wav
Size: 577178492 Hash: 47AE41E78BAE03707D1678682D0941C1 Accuracy: -m0
Conclusion: CDDA 100%
Signature: 665A6C284100796768A5D5BCA8036C12888A8FB4

================================================================================

foobar2000 1.1.3 / Dynamic Range Meter 1.1.0
log date: 2012-08-08 18:20:29

––––––––––––––––––––––––––––––––––––––––
Analyzed: Clutch / Blast Tyrant
––––––––––––––––––––––––––––––––––––––––

DR Peak RMS Duration Track
––––––––––––––––––––––––––––––––––––––––
DR6 -0.01 dB -7.87 dB 3:00 01-Mercury
DR6 -0.01 dB -7.24 dB 3:13 02-Profits Of Doom
DR5 0.00 dB -6.20 dB 3:32 03-The Mob Goes Wild
DR6 -0.01 dB -6.79 dB 2:46 04-Cypress Grove
DR5 -0.01 dB -6.87 dB 3:14 05-Promoter (Of Earthbound Causes)
DR6 -0.01 dB -8.04 dB 5:25 06-The Regulator
DR5 -0.01 dB -6.44 dB 3:14 07-Worm Drink
DR6 0.00 dB -6.68 dB 4:37 08-Army Of Bono
DR5 -0.01 dB -6.22 dB 2:38 09-Spleen Merchant
DR5 -0.01 dB -6.16 dB 3:02 10-(In The Wake Of) The Swollen Goat
DR9 0.00 dB -12.44 dB 0:48 11-Weather Maker
DR5 -0.01 dB -6.27 dB 2:47 12-Subtle Hustle
DR6 -0.01 dB -7.26 dB 4:38 13-Eulogy For A Ghost
DR5 0.00 dB -7.38 dB 5:49 14-(Notes From The Trial Of) La Curandera
DR5 -0.01 dB -6.57 dB 5:49 15-WYSIWYG
––––––––––––––––––––––––––––––––––––––––

Number of tracks: 15
Official DR value: DR6

Samplerate: 44100 Hz
Channels: 2
Bits per sample: 16
Bitrate: 1411 kbps
Codec: PCM
================================================================================

• Tim Sult - Guitar
• Jean-Paul Gaster - Drums and Percussion
• Dan Maines - Bass
• Neil Fallon - Vocals and Guitar

Produced by Mashine & Clutch.

Please, do not write these links at any web pages. Enjoy & keep the files alive!
* - EAC Image, standard LOG, embedded cuesheet, Foobar2000 ready