Subcategories

Clutch - Live At The Googolplex (2002) RESTORED

Posted By: Necromandus
Clutch - Live At The Googolplex (2002) RESTORED

Clutch - Live At The Googolplex (2002)
EAC Rip | FLAC, IMG+CUE+LOG | 430 MB | MP3 CBR 320 Kbps | 140 MB | Complete HQ Scans | PNG -> 20 MB
Stoner Rock | Label: Megaforce Records #MEGA1983| RAR 3% Rec. | FilePost

"Although they may look more like a group of scientists or librarians than a rock band, don't be fooled by their appearance – Clutch are easily one of metal's top live acts. While the majority of modern-day metal bands stick close to the studio versions on-stage, Clutch is an exception, as they've been known to follow in the same "jamming" path as pre-punk '70s-era rockers. However, Clutch's 2003 concert set, Live at the Googolplex, does not include a smorgasbord of jamming, like some fans who have caught the band live would expect. The group's guitarist, Tim Sult, has long been one of metal's most underrated guitarists (especially in the riff department) and in a way, Googolplex serves as a showcase for Sult's talents, especially on such tracks as "Sea of Destruction" and "Rats." And there are a few moments when Clutch manage to sneak some jams into the set (but again, not as many or as long as one would expect) – "Careful with That Mic…," "Escape from the Prison Planet," etc. Containing most of Clutch's strongest tracks, Live at the Googolplex is an adequate sampler for newcomers until the group issues a true "best-of" collection. "

~ allmusic.com
Tracklist :

1. Who Wants To Rock? - 1:17
2. Pure Rock Fury - 3:15
3. Sea Of Destruction - 2:44
4. Immortal - 2:56
5. Careful With That Mic… - 5:26
6. Impetus - 3:28
7. El Jefe - 3:27
8. Rock and Roll Outlaw - 2:33
9. 12oz Epilogue - 2:13
10. Big News I - 5:31
11. Big News II - 2:44
12. Brazenhead - 5:51
13. The Soapmakers - 4:44
14. Escape From The Prison Planet - 5:52
15. Rats - 2:58

Exact Audio Copy V0.99 prebeta 4 from 23. January 2008

EAC extraction logfile from 1. January 2009, 20:15

Clutch / Live At The Googolplex

Used drive : Optiarc DVD RW AD-7191A Adapter: 1 ID: 0

Read mode : Secure
Utilize accurate stream : Yes
Defeat audio cache : Yes
Make use of C2 pointers : No

Read offset correction : 6
Overread into Lead-In and Lead-Out : No
Fill up missing offset samples with silence : Yes
Delete leading and trailing silent blocks : No
Null samples used in CRC calculations : Yes
Used interface : Installed external ASPI interface

Used output format : Internal WAV Routines
Sample format : 44.100 Hz; 16 Bit; Stereo


TOC of the extracted CD

Track | Start | Length | Start sector | End sector
––––––––––––––––––––––––––––-
1 | 0:00.00 | 1:16.73 | 0 | 5772
2 | 1:16.73 | 3:15.35 | 5773 | 20432
3 | 4:32.33 | 2:43.55 | 20433 | 32712
4 | 7:16.13 | 2:55.70 | 32713 | 45907
5 | 10:12.08 | 5:25.38 | 45908 | 70320
6 | 15:37.46 | 3:28.32 | 70321 | 85952
7 | 19:06.03 | 3:26.67 | 85953 | 101469
8 | 22:32.70 | 2:32.46 | 101470 | 112915
9 | 25:05.41 | 2:13.32 | 112916 | 122922
10 | 27:18.73 | 5:30.50 | 122923 | 147722
11 | 32:49.48 | 2:43.62 | 147723 | 160009
12 | 35:33.35 | 5:51.02 | 160010 | 186336
13 | 41:24.37 | 4:43.62 | 186337 | 207623
14 | 46:08.24 | 5:52.28 | 207624 | 234051
15 | 52:00.52 | 2:58.23 | 234052 | 247424


Range status and errors

Selected range

Filename D:\music\Clutch - Live At The Googolplex.wav

Peak level 100.0 %
Range quality 100.0 %
Copy CRC 921E49CC
Copy OK

No errors occurred


AccurateRip summary

Track 1 accurately ripped (confidence 4) [D9755CC2]
Track 2 accurately ripped (confidence 4) [88942D71]
Track 3 accurately ripped (confidence 4) [68463A95]
Track 4 accurately ripped (confidence 4) [9D8FF9BD]
Track 5 accurately ripped (confidence 4) [EF663BA9]
Track 6 accurately ripped (confidence 4) [A265AD6E]
Track 7 accurately ripped (confidence 4) [73F18B90]
Track 8 accurately ripped (confidence 4) [5FA9ABD2]
Track 9 accurately ripped (confidence 4) [D17F236E]
Track 10 accurately ripped (confidence 4) [6367D870]
Track 11 accurately ripped (confidence 4) [C2DC9F87]
Track 12 accurately ripped (confidence 4) [6140E838]
Track 13 accurately ripped (confidence 4) [FFC6A03D]
Track 14 accurately ripped (confidence 4) [E1ACD591]
Track 15 accurately ripped (confidence 4) [AEB12B3F]

All tracks accurately ripped

End of status report

–––––––––––-

DON'T MODIFY THIS FILE

–––––––––––-

PERFORMER: auCDtect Task Manager, ver. 1.5.1RC4 build 1.5.1.5
Copyright © 2008-2010 y-soft. All rights reserved
http://y-soft.org

ANALYZER: auCDtect: CD records authenticity detector, version 0.8.2
Copyright © 2004 Oleg Berngardt. All rights reserved.
Copyright © 2004 Alexander Djourik. All rights reserved.


FILE: Clutch - Live At The Googolplex.wav
Size: 581943644 Hash: E6A040FE204AFB4CF69B4B305C211E96 Accuracy: -m0
Conclusion: CDDA 99%
Signature: 3DAB90F524479BB1E3DED24BB077211CD51FF65C

================================================================================
foobar2000 1.1.3 / Dynamic Range Meter 1.1.1
log date: 2012-09-05 14:23:49

––––––––––––––––––––––––––––––––––––––––
Analyzed: Clutch / Live At The Googolplex
––––––––––––––––––––––––––––––––––––––––

DR Peak RMS Duration Track
––––––––––––––––––––––––––––––––––––––––
DR5 -0.01 dB -7.31 dB 1:17 01-Who Wants To Rock?
DR6 -0.01 dB -7.19 dB 3:15 02-Pure Rock Fury
DR7 -0.01 dB -7.97 dB 2:44 03-Sea Of Destruction
DR7 -0.01 dB -7.30 dB 2:56 04-Immortal [Song By Neil Fallon & Leslie West (Mountain)]
DR7 -0.01 dB -7.42 dB 5:26 05-Careful With That Mic…
DR7 -0.01 dB -7.20 dB 3:28 06-Impetus
DR8 -0.01 dB -8.36 dB 3:27 07-El Jefe
DR7 -0.20 dB -7.57 dB 2:33 08-Rock And Roll Outlaw
DR7 0.00 dB -7.63 dB 2:13 09-12 Oz Epilogue
DR4 -0.20 dB -5.01 dB 5:31 10-Big News I
DR4 -0.20 dB -5.20 dB 2:44 11-Big News II
DR7 -0.01 dB -8.32 dB 5:51 12-Brazenhead
DR7 -0.01 dB -7.83 dB 4:44 13-The Soapmakers
DR7 -0.20 dB -8.06 dB 5:52 14-Escape From The Prison Planet
DR7 -0.20 dB -8.40 dB 2:58 15-Rats
––––––––––––––––––––––––––––––––––––––––

Number of tracks: 15
Official DR value: DR6

Samplerate: 44100 Hz
Channels: 2
Bits per sample: 16
Bitrate: 1411 kbps
Codec: PCM
================================================================================

• Tim Sult - Guitar
• J.P. Gaster - Drums and Percussion
• Dan Maines - Bass
• Neil Fallon - Vocals and Guitar

Please, do not write these links at any web pages. Enjoy & keep the files alive!
* - EAC Image, standard LOG, embedded cuesheet, Foobar2000 ready