Subcategories

Clutch - Pitchfork & Lost Needles (2005) PROPER

Posted By: Necromandus
Clutch - Pitchfork & Lost Needles (2005)  PROPER

Clutch - Pitchfork & Lost Needles (2005)
EAC Rip | FLAC, IMG+CUE+LOG | 300 MB | MP3 CBR 320 Kbps | 90 MB | Complete HQ Scans | PNG -> 30 MB
Stoner Rock | Label: Megaforce Records #MEGA2003 | RAR 3% Rec. | Uploaded.net

"Pitchfork & Lost Needles combines Clutch's first 7" EP, the 4-song Pitchfork and also includes some of the heaviest songs from the early days, including the unreleased "Nero's Fiddle." Plus, for added bonus are two new unreleased songs recorded in March 2005 called, "What Would A Wookie Do?" and "Bottoms Up, Socrates." Pitchfork & Lost Needles represents Clutch at the beginning and at their heaviest. It's a brutal hardcore masterpiece.""

~ StonerRock.com
Tracklist :

1. Wicker - 3:30
2. Arcadia - 3:00
3. Juggernaut - 3:37
4. Far Country - 3:49
5. Nero's Fiddle - 3:34
6. Passive Restraints (Demo) - 3:02
7. Bacchanal (Demo) - 3:50
8. Milk Of Human Kindness (Demo) - 4:10
9. What Would A Wookie Do? - 4:26
10. Bottoms Up, Socrates - 3:41

Exact Audio Copy V1.0 beta 3 from 29. August 2011

EAC extraction logfile from 12. September 2013, 18:49

Clutch / Pitchfork & Lost Needles

Used drive : PIONEER DVD-RW DVR-219L Adapter: 1 ID: 0

Read mode : Secure
Utilize accurate stream : Yes
Defeat audio cache : Yes
Make use of C2 pointers : No

Read offset correction : 6
Overread into Lead-In and Lead-Out : No
Fill up missing offset samples with silence : Yes
Delete leading and trailing silent blocks : No
Null samples used in CRC calculations : Yes
Used interface : Installed external ASPI interface

Used output format : Internal WAV Routines
Sample format : 44.100 Hz; 16 Bit; Stereo


TOC of the extracted CD

Track | Start | Length | Start sector | End sector
––––––––––––––––––––––––––––-
1 | 0:00.00 | 3:30.09 | 0 | 15758
2 | 3:30.09 | 3:00.09 | 15759 | 29267
3 | 6:30.18 | 3:37.31 | 29268 | 45573
4 | 10:07.49 | 3:49.20 | 45574 | 62768
5 | 13:56.69 | 3:33.49 | 62769 | 78792
6 | 17:30.43 | 3:02.35 | 78793 | 92477
7 | 20:33.03 | 3:49.52 | 92478 | 109704
8 | 24:22.55 | 4:09.60 | 109705 | 128439
9 | 28:32.40 | 4:26.29 | 128440 | 148418
10 | 32:58.69 | 3:40.65 | 148419 | 164983


Range status and errors

Selected range

Filename D:\.www.AvaxHome.ru\Clutch - Pitchfork & Lost Needles.wav

Peak level 99.9 %
Extraction speed 6.7 X
Range quality 100.0 %
Test CRC 5A6E3A2A
Copy CRC 5A6E3A2A
Copy OK

No errors occurred


AccurateRip summary

Track 1 cannot be verified as accurate (confidence 8) [E6046384], AccurateRip returned [61663CA8] (AR v2)
Track 2 cannot be verified as accurate (confidence 9) [1575FB60], AccurateRip returned [55889316] (AR v2)
Track 3 cannot be verified as accurate (confidence 9) [BDBFEF97], AccurateRip returned [DFA5DEDB] (AR v2)
Track 4 cannot be verified as accurate (confidence 9) [8BA90C65], AccurateRip returned [1A8D9855] (AR v2)
Track 5 cannot be verified as accurate (confidence 9) [54CBB361], AccurateRip returned [7530F9A6] (AR v2)
Track 6 cannot be verified as accurate (confidence 9) [FF15E656], AccurateRip returned [4107D18E] (AR v2)
Track 7 cannot be verified as accurate (confidence 8) [C53312D4], AccurateRip returned [D3877DA2] (AR v2)
Track 8 cannot be verified as accurate (confidence 8) [441C64D3], AccurateRip returned [D3315E36] (AR v2)
Track 9 cannot be verified as accurate (confidence 8) [F2EB6454], AccurateRip returned [E6DD1640] (AR v2)
Track 10 cannot be verified as accurate (confidence 9) [7BE6191D], AccurateRip returned [E55C8FCA] (AR v2)

No tracks could be verified as accurate
You may have a different pressing from the one(s) in the database

End of status report

–– CUETools DB Plugin V2.1.4

[CTDB TOCID: cj2DJ1k1U7VJUD0W81nosOFgZqY-] found
Submit result: cj2DJ1k1U7VJUD0W81nosOFgZqY- has been confirmed
Track | CTDB Status
1 | (7/8) Accurately ripped
2 | (8/8) Accurately ripped
3 | (8/8) Accurately ripped
4 | (8/8) Accurately ripped
5 | (8/8) Accurately ripped
6 | (7/8) Accurately ripped
7 | (8/8) Accurately ripped
8 | (8/8) Accurately ripped
9 | (8/8) Accurately ripped
10 | (8/8) Accurately ripped


==== Log checksum 61E2F53BDEA4A22461E03AF9E8F9B3D0F19B491E31DE2B628BB6F48BD7EBC606 ====

• Neil Fallon - Vocals, Guitar and Percussion
• Tim Sult - Guitar
• Dan Maines - Bass
• Jean-Paul Gaster - Drums and Percussion

Additional guitars:
Mark Stanley on track 2 and 3
Scott Crawford on track 1 nad 4
Lossless (FLAC)*
http://uploaded.net/file/a6qiqjhm/CLT05PLNLOS.rar

All Covers (PNG)
http://uploaded.net/file/yn7rb82q/CLT05PLNCOV.rar

Lossy HQ (320 Kbps CBR)
http://uploaded.net/file/ev2l0o6y/CLT05PLNMP3.rar

* Original CD -> EAC image, embedded cuesheet & more, foobar2000 ready, etc.
(all CUEs, LOGs and other technical info includes in the internal "CD_Support" archive).

Please, do not write these links at any web pages. Enjoy & keep the files alive!