Subcategories

Ben Webster & Coleman Hawkins - Coleman Hawkins Encounters Ben Webster (1957) [Remastered 2005]

Posted By: Bezz
Ben Webster & Coleman Hawkins - Coleman Hawkins Encounters Ben Webster (1957) [Remastered 2005]

Ben Webster & Coleman Hawkins - Coleman Hawkins Encounters Ben Webster (1957) [Remastered 2005]
EAC rip | FLAC + CUE + LOG | Full Scans | 232 Mb
Genre ~ Bop | Saxophone Jazz
Label ~ Verve Records

Coleman Hawkins and Ben Webster first met at a Kansas City jam session at which Hawkins finally encountered his match in local tenors Webster, Herschel Evans, and Lester Young. The all-night meeting has become the stuff of legend (and a continuous thread in Robert Altman's film Kansas City, though there it's reduced to two tenors). Recorded by Norman Granz, this 1957 meeting supports the two with fine accompaniment that includes Oscar Peterson, Ray Brown, and Herb Ellis. The material includes the great "Blues for Yolanda," with a honking, squeaking solo that suggests Hawkins is the father of all R&B tenor saxophonists as well as those in jazz, while "Rosalita" has an engaging Latin beat. There's also plenty of room for the two to display their ballad art, but there's no real competition between the two big-toned, gruff tenorists, each a mature artist enjoying the highest challenge a peer might offer.


Tracks List


1.Blues For Yolande
2.It Never Entered My Mind
3.Rosita
4.You'd Be So Nice To Come Home To
5.Prisoner Of Love
6.Tangerine
7.Shine On Harvest Moon
8.Blues For Yolande (mono take)
9.Blues For Yolanda (incomplete takes)


Exact Audio Copy V0.99 prebeta 5 from 4. May 2009

EAC extraction logfile from 24. December 2009, 16:18

Coleman Hawkins-Ben Webster / Coleman Hawkins Encounters Ben Webster

Used drive : PLEXTOR CD-R PREMIUM2 Adapter: 1 ID: 1

Read mode : Secure
Utilize accurate stream : Yes
Defeat audio cache : Yes
Make use of C2 pointers : No

Read offset correction : 30
Overread into Lead-In and Lead-Out : No
Fill up missing offset samples with silence : Yes
Delete leading and trailing silent blocks : No
Null samples used in CRC calculations : Yes
Used interface : Installed external ASPI interface
Gap handling : Appended to previous track

Used output format : User Defined Encoder
Selected bitrate : 32 kBit/s
Quality : High
Add ID3 tag : No
Command line compressor : C:\Programmi\FLAC\flac.exe
Additional command line options : -8 -V -T "ARTIST=%a" -T "TITLE=%t" -T "ALBUM=%g" -T "DATE=%y" -T "TRACKNUMBER=%n" -T "GENRE=%m" -T "COMMENT=EAC FLAC -8" %s


TOC of the extracted CD

Track | Start | Length | Start sector | End sector
––––––––––––––––––––––––––––-
1 | 0:00.00 | 6:48.53 | 0 | 30652
2 | 6:48.53 | 5:50.47 | 30653 | 56949
3 | 12:39.25 | 5:06.30 | 56950 | 79929
4 | 17:45.55 | 4:19.35 | 79930 | 99389
5 | 22:05.15 | 4:16.55 | 99390 | 118644
6 | 26:21.70 | 5:24.45 | 118645 | 142989
7 | 31:46.40 | 4:59.48 | 142990 | 165462
8 | 36:46.13 | 7:06.15 | 165463 | 197427
9 | 43:52.28 | 2:59.39 | 197428 | 210891


Track 1

Filename D:\My Rip\01 - Blues For Yolande.wav

Pre-gap length 0:00:02.00

Peak level 99.9 %
Track quality 100.0 %
Test CRC D5F31A98
Copy CRC D5F31A98
Accurately ripped (confidence 5) [44D2A591]
Copy OK

Track 2

Filename D:\My Rip\02 - It Never Entered My Mind.wav

Pre-gap length 0:00:03.84

Peak level 79.8 %
Track quality 99.9 %
Test CRC FD2ACCE1
Copy CRC FD2ACCE1
Accurately ripped (confidence 5) [BC8FA66C]
Copy OK

Track 3

Filename D:\My Rip\03 - La Rosita.wav

Pre-gap length 0:00:03.70

Peak level 98.8 %
Track quality 100.0 %
Test CRC B413F757
Copy CRC B413F757
Accurately ripped (confidence 5) [4FC58E98]
Copy OK

Track 4

Filename D:\My Rip\04 - You'd Be So Nice To Come Home To.wav

Pre-gap length 0:00:03.73

Peak level 96.6 %
Track quality 100.0 %
Test CRC D8376E23
Copy CRC D8376E23
Accurately ripped (confidence 4) [EF612910]
Copy OK

Track 5

Filename D:\My Rip\05 - Prisoner Of Love.wav

Pre-gap length 0:00:03.84

Peak level 92.2 %
Track quality 100.0 %
Test CRC 3BBD9A6A
Copy CRC 3BBD9A6A
Accurately ripped (confidence 5) [F1EDF88E]
Copy OK

Track 6

Filename D:\My Rip\06 - Tangerine.wav

Pre-gap length 0:00:03.84

Peak level 96.6 %
Track quality 100.0 %
Test CRC 3C411356
Copy CRC 3C411356
Accurately ripped (confidence 5) [ECC1FFE7]
Copy OK

Track 7

Filename D:\My Rip\07 - Shine On, Harvest Moon.wav

Pre-gap length 0:00:03.80

Peak level 100.0 %
Track quality 100.0 %
Test CRC 0608B11B
Copy CRC 0608B11B
Accurately ripped (confidence 5) [5A237B34]
Copy OK

Track 8

Filename D:\My Rip\08 - Blues For Yolande (Mono).wav

Pre-gap length 0:00:10.73

Peak level 68.4 %
Track quality 100.0 %
Test CRC B81D43C3
Copy CRC B81D43C3
Accurately ripped (confidence 4) [3F3D1C9C]
Copy OK

Track 9

Filename D:\My Rip\09 - Blues For Yolande (Prel Takes).wav

Pre-gap length 0:00:13.44

Peak level 49.7 %
Track quality 100.0 %
Test CRC 7FC3A07B
Copy CRC 7FC3A07B
Accurately ripped (confidence 4) [1456BFF9]
Copy OK


All tracks accurately ripped

No errors occurred

End of status report


Ben Webster & Coleman Hawkins - Coleman Hawkins Encounters Ben Webster (1957) [Remastered 2005]


Ben Webster & Coleman Hawkins - Coleman Hawkins Encounters Ben Webster (1957) [Remastered 2005]



Special thanks to the original uploader, random133!

FILESONIC links

Part 1 | Part 2 | Part 3


FILESERVE links

Part 1 | Part 2 | Part 3


HOTFILE links

Part 1 | Part 2 | Part 3


BITSHARE links

Part 1 | Part 2 | Part 3



Welcome to my blog for more wonderful music


PLEASE DO NOT PROVIDE MIRROR LINKS!