Subcategories

Colin Webster & Andrew Lisle - Void Into Shape (2017)

Posted By: delpotro
Colin Webster & Andrew Lisle - Void Into Shape (2017)

Colin Webster & Andrew Lisle - Void Into Shape (2017)
XLD Rip | FLAC (tracks+log+.cue) - 288 Mb | MP3 CBR 320 kbps - 112 Mb | 00:48:50
Free Jazz, Avant-Garde Jazz | Label: Norwegianism Records

These two heavy hitters of the European improv scene should not be strangers to Norwegianism Records afficionados. 'Void Into Shape' is another convincing example of their abililty to sound extremely abstract without immediately alienating the listener. Be prepared to have your mind warped into another dimension.
Tracklist:
1. Tangent
2. Circles And Lines
3. Abstractions
4. Raveled And Unraveled
5. Patterns Emerge
6. Cross
7. Parallel Space
8. Arc
9. Void Into Shape
10. Clear Aspect
11. Oblique Course

X Lossless Decoder version 20170729 (150.3)

XLD extraction logfile from 2019-03-27 22:28:06 +0100

Colin Webster / Andrew Lisle / Void Into Shape

Used drive : HL-DT-ST DVDRW GA32N (revision KE06)
Media type : CD-Recordable

Ripper mode : XLD Secure Ripper
Disable audio cache : OK for the drive with a cache less than 1375KiB
Make use of C2 pointers : NO
Read offset correction : 103
Max retry count : 100
Gap status : Analyzed, Appended (except HTOA)

TOC of the extracted CD
Track | Start | Length | Start sector | End sector
––––––––––––––––––––––––––––-
1 | 00:00:00 | 04:23:40 | 0 | 19764
2 | 04:23:40 | 03:21:70 | 19765 | 34909
3 | 07:45:35 | 07:38:01 | 34910 | 69260
4 | 15:23:36 | 06:26:29 | 69261 | 98239
5 | 21:49:65 | 03:46:43 | 98240 | 115232
6 | 25:36:33 | 03:11:15 | 115233 | 129572
7 | 28:47:48 | 03:41:74 | 129573 | 146221
8 | 32:29:47 | 02:44:51 | 146222 | 158572
9 | 35:14:23 | 02:51:19 | 158573 | 171416
10 | 38:05:42 | 04:29:69 | 171417 | 191660
11 | 42:35:36 | 06:14:59 | 191661 | 219769

AccurateRip Summary
Disc not found in AccurateRip DB.

All Tracks
Album gain : -6.77 dB
Peak : 1.000000
Statistics
Read error : 0
Jitter error (maybe fixed) : 0
Retry sector count : 0
Damaged sector count : 0

Track 01
Filename : /Volumes/LaCie/Music/XLD/Colin Webster / Andrew Lisle - Void Into Shape [FLAC]/01 - Colin Webster / Andrew Lisle - Tangent.flac
Pre-gap length : 00:02:00

Track gain : -7.50 dB
Peak : 1.000000
CRC32 hash (test run) : 57C3DC9D
CRC32 hash : 57C3DC9D
CRC32 hash (skip zero) : 5599182A
AccurateRip v1 signature : 7377C8EB
AccurateRip v2 signature : ADCF54B0
->Track not present in AccurateRip database.
Statistics
Read error : 0
Jitter error (maybe fixed) : 0
Retry sector count : 0
Damaged sector count : 0

Track 02
Filename : /Volumes/LaCie/Music/XLD/Colin Webster / Andrew Lisle - Void Into Shape [FLAC]/02 - Colin Webster / Andrew Lisle - Circles And Lines.flac

Track gain : -7.75 dB
Peak : 1.000000
CRC32 hash (test run) : E0543DA4
CRC32 hash : E0543DA4
CRC32 hash (skip zero) : 200F3707
AccurateRip v1 signature : E4758C68
AccurateRip v2 signature : 36747E0C
->Track not present in AccurateRip database.
Statistics
Read error : 0
Jitter error (maybe fixed) : 0
Retry sector count : 0
Damaged sector count : 0

Track 03
Filename : /Volumes/LaCie/Music/XLD/Colin Webster / Andrew Lisle - Void Into Shape [FLAC]/03 - Colin Webster / Andrew Lisle - Abstractions.flac

Track gain : -3.07 dB
Peak : 0.999817
CRC32 hash (test run) : 8F69ECFB
CRC32 hash : 8F69ECFB
CRC32 hash (skip zero) : F3A4FD4F
AccurateRip v1 signature : 41447144
AccurateRip v2 signature : E10A603D
->Track not present in AccurateRip database.
Statistics
Read error : 0
Jitter error (maybe fixed) : 0
Retry sector count : 0
Damaged sector count : 0

Track 04
Filename : /Volumes/LaCie/Music/XLD/Colin Webster / Andrew Lisle - Void Into Shape [FLAC]/04 - Colin Webster / Andrew Lisle - Raveled And Unraveled.flac

Track gain : -5.09 dB
Peak : 1.000000
CRC32 hash (test run) : F8CB81EC
CRC32 hash : F8CB81EC
CRC32 hash (skip zero) : 89FE4A15
AccurateRip v1 signature : AD634CCA
AccurateRip v2 signature : A73276E3
->Track not present in AccurateRip database.
Statistics
Read error : 0
Jitter error (maybe fixed) : 0
Retry sector count : 0
Damaged sector count : 0

Track 05
Filename : /Volumes/LaCie/Music/XLD/Colin Webster / Andrew Lisle - Void Into Shape [FLAC]/05 - Colin Webster / Andrew Lisle - Patterns Emerge.flac

Track gain : -6.39 dB
Peak : 0.981110
CRC32 hash (test run) : 94986C74
CRC32 hash : 94986C74
CRC32 hash (skip zero) : AB77DCA3
AccurateRip v1 signature : 38BBF43F
AccurateRip v2 signature : 97E4F1E1
->Track not present in AccurateRip database.
Statistics
Read error : 0
Jitter error (maybe fixed) : 0
Retry sector count : 0
Damaged sector count : 0

Track 06
Filename : /Volumes/LaCie/Music/XLD/Colin Webster / Andrew Lisle - Void Into Shape [FLAC]/06 - Colin Webster / Andrew Lisle - Cross.flac

Track gain : -7.50 dB
Peak : 1.000000
CRC32 hash (test run) : 59D74C78
CRC32 hash : 59D74C78
CRC32 hash (skip zero) : 95F290BC
AccurateRip v1 signature : 1DE9FB59
AccurateRip v2 signature : 254F7FB5
->Track not present in AccurateRip database.
Statistics
Read error : 0
Jitter error (maybe fixed) : 0
Retry sector count : 0
Damaged sector count : 0

Track 07
Filename : /Volumes/LaCie/Music/XLD/Colin Webster / Andrew Lisle - Void Into Shape [FLAC]/07 - Colin Webster / Andrew Lisle - Parallel Space.flac

Track gain : 1.22 dB
Peak : 0.435303
CRC32 hash (test run) : 2B6BD71B
CRC32 hash : 2B6BD71B
CRC32 hash (skip zero) : 5889BB0F
AccurateRip v1 signature : 8C549656
AccurateRip v2 signature : 82F6B7E5
->Track not present in AccurateRip database.
Statistics
Read error : 0
Jitter error (maybe fixed) : 0
Retry sector count : 0
Damaged sector count : 0

Track 08
Filename : /Volumes/LaCie/Music/XLD/Colin Webster / Andrew Lisle - Void Into Shape [FLAC]/08 - Colin Webster / Andrew Lisle - Arc.flac

Track gain : -6.68 dB
Peak : 0.974213
CRC32 hash (test run) : 2C4EFE2F
CRC32 hash : 2C4EFE2F
CRC32 hash (skip zero) : 9B76503E
AccurateRip v1 signature : C6EAD087
AccurateRip v2 signature : FBA654C3
->Track not present in AccurateRip database.
Statistics
Read error : 0
Jitter error (maybe fixed) : 0
Retry sector count : 0
Damaged sector count : 0

Track 09
Filename : /Volumes/LaCie/Music/XLD/Colin Webster / Andrew Lisle - Void Into Shape [FLAC]/09 - Colin Webster / Andrew Lisle - Void Into Shape.flac

Track gain : -0.32 dB
Peak : 0.989685
CRC32 hash (test run) : BDA1935E
CRC32 hash : BDA1935E
CRC32 hash (skip zero) : 20259FF8
AccurateRip v1 signature : 636A918F
AccurateRip v2 signature : DDAE69B8
->Track not present in AccurateRip database.
Statistics
Read error : 0
Jitter error (maybe fixed) : 0
Retry sector count : 0
Damaged sector count : 0

Track 10
Filename : /Volumes/LaCie/Music/XLD/Colin Webster / Andrew Lisle - Void Into Shape [FLAC]/10 - Colin Webster / Andrew Lisle - Clear Aspect.flac

Track gain : -7.42 dB
Peak : 1.000000
CRC32 hash (test run) : E19DCA33
CRC32 hash : E19DCA33
CRC32 hash (skip zero) : 2ED5F1B5
AccurateRip v1 signature : D7C6EB23
AccurateRip v2 signature : 6BDFCD15
->Track not present in AccurateRip database.
Statistics
Read error : 0
Jitter error (maybe fixed) : 0
Retry sector count : 0
Damaged sector count : 0

Track 11
Filename : /Volumes/LaCie/Music/XLD/Colin Webster / Andrew Lisle - Void Into Shape [FLAC]/11 - Colin Webster / Andrew Lisle - Oblique Course.flac

Track gain : -6.96 dB
Peak : 1.000000
CRC32 hash (test run) : 1378F22F
CRC32 hash : 1378F22F
CRC32 hash (skip zero) : C574D941
AccurateRip v1 signature : 6C565027
AccurateRip v2 signature : 62374487
->Track not present in AccurateRip database.
Statistics
Read error : 0
Jitter error (maybe fixed) : 0
Retry sector count : 0
Damaged sector count : 0

No errors occurred

End of status report

––-BEGIN XLD SIGNATURE––-
NDLRR8lxYwqlGK6sioXU60gyKxzCZ4iFsueWVqXPkP3.PjiCm24Zj92rmRujwTeJYlBfzidHVBlWO7ikg8JB.6cpEQNJ_ExHuuglbGK
––-END XLD SIGNATURE––-

Thanks to the Original ripper Lovebuzz2001 !