Subcategories

Musica Futurista (2000)

Posted By: ooliver
Musica Futurista (2000)

Musica Futurista (2000)
TDaniele Lombardi, piano
Classic - Avant-Garde - piano solo | EAC Rip (ape, cue, log) | 7-zip | 325 MB | RS.com
Label: col legno | Cat. Num.: WWE 1CD 20076 | 1 CD 76:44 | Full Scans

This anthology is a kind of ship's log of my long research, born of a passion for futurism. Now that the twentieth century has become the previous century, the ideas of Filippo Tommaso Marinetti enjoy more than ever a propulsive energy that furthered the many movements throughout Europe that constituted the historical avant-garde.
The pieces that make up this anthology are highly diverse: transgression and contamination, rumorismo (noiseism), hyperexpressive states of the soul, rhythmic heightening, but all of them share a need for modernization, for anticonformity, for courageous experimentation.
Daniele Lombardi from the attached booket
fururisMUSIC (34 tracks) 76:27

Franco.Casavola
01 Tango [manoscritto] 04:18
02 Allegro [1925 manoscritto] da Cabaret Epilettico 02:02
03 Danza delle scimmie [manoscritto] da Hop Frog 02:44
04 Preludio a Prigionieri [1925 manoscritto] 03:11

Alberto Savinio
Les chants de la mi-mort, suite pour piano (1914) (6 tracks, 12:35)
05 1 Scène: l'homme chauve et l'homme jaune  01:30
06 2 L'exécution du général 00:58
07 3 Daisyssina 02:42
08 4 Les anges tués 01:00
09 5 Le roi affolé - le phare 01:52
10 6 Danses 04:33

11 Serenata 02:40

Silvio Mix
12 Profilo sintetico musicale di F.F.Marinetti [1923 manoscritto] dal Nuovo Teatro Futurista 01:22

Due preludi [1923 manoscritto] da "Gli stati d'animo"- (2 tracks, 02:54)
13 assai calmo  01:38
14 molto largo e drammatico 01:16

15 Crepuscolo d'agosto 03:17
16 Omaggio a Stravinsky [1925 manoscritto] 02:29

Alfredo Casella
Deux contrastes [1916-18] Op. 031 (2 tracks, 02:38)
17 Grazioso 01:11
18 Antigrazioso 01:27

Giacinto Scelsi
19 Rotativa [1929 Ricordi] 05:42

Virgilio Mortari
20 Fox-trot futurista [manoscritto] del Teatro della Sorpresa 03:07
21 Dramma - Sinfonia [manoscritto] 00:19

Aldo Giuntini
22 Le Macchine [1933 manoscritto] 02:01
23 Il Mare [1931 manoscritto] dalle Sintesi musicali futuriste 02:20
24 The India Rubber Man [manoscritto] one step 01:07

Mario Monachesi
25 Eliche, per due pianoforti [1938 manoscritto] sovrapposizione 00:58
26 Contraerei [1938 manoscritto] 01:16
27 Ala spaziale [1938 manoscritto] aeromusica 01:14

Daniele Napoletano
Estratti Musicali [manoscritto] (4 tracks, 05:47)
28 Marinetti I 00:51
29 Marinetti II 02:03
30 Cangiullo I 01:05
31 Cangiullo II 01:48

Gian Francesco Malipiero
32 Risonanze [1918] 07:50

Germaine Albert Birot
33 Dada 3 [1916 manoscritto] 01:29

Igor Stravinsky
34 Piano Rag Music [1919] 03:07


col legno WWE 1CD 20076 (2000)
Exact Audio Copy V0.99 prebeta 4 from 23. January 2008
EAC extraction logfile from 13. May 2009, 13:24
Daniele Lombardi / futurisMUSIC
Used drive : HL-DT-STDVDRAM GSA-H44N Adapter: 3 ID: 0

Read mode : Secure
Utilize accurate stream : Yes
Defeat audio cache : No
Make use of C2 pointers : No

Read offset correction : 667
Overread into Lead-In and Lead-Out : No
Fill up missing offset samples with silence : Yes
Delete leading and trailing silent blocks : No
Null samples used in CRC calculations : Yes
Used interface : Installed external ASPI interface

Used output format : Internal WAV Routines
Sample format : 44.100 Hz; 16 Bit; Stereo

TOC of the extracted CD
Track | Start | Length | Start sector | End sector
––––––––––––––––––––––––––––-
1 | 0:00.00 | 4:18.20 | 0 | 19369
2 | 4:18.20 | 2:02.32 | 19370 | 28551
3 | 6:20.52 | 2:44.17 | 28552 | 40868
4 | 9:04.69 | 3:11.71 | 40869 | 55264
5 | 12:16.65 | 1:30.63 | 55265 | 62077
6 | 13:47.53 | 0:58.30 | 62078 | 66457
7 | 14:46.08 | 2:42.04 | 66458 | 78611
8 | 17:28.12 | 1:00.37 | 78612 | 83148
9 | 18:28.49 | 1:52.56 | 83149 | 91604
10 | 20:21.30 | 4:33.06 | 91605 | 112085
11 | 24:54.36 | 2:40.01 | 112086 | 124086
12 | 27:34.37 | 1:22.01 | 124087 | 130237
13 | 28:56.38 | 1:38.34 | 130238 | 137621
14 | 30:34.72 | 1:16.09 | 137622 | 143330
15 | 31:51.06 | 3:17.12 | 143331 | 158117
16 | 35:08.18 | 2:29.65 | 158118 | 169357
17 | 37:38.08 | 1:11.11 | 169358 | 174693
18 | 38:49.19 | 1:27.73 | 174694 | 181291
19 | 40:17.17 | 5:42.20 | 181292 | 206961
20 | 45:59.37 | 3:07.04 | 206962 | 220990
21 | 49:06.41 | 0:19.33 | 220991 | 222448
22 | 49:25.74 | 2:01.02 | 222449 | 231525
23 | 51:27.01 | 2:20.74 | 231526 | 242099
24 | 53:48.00 | 1:07.05 | 242100 | 247129
25 | 54:55.05 | 0:58.58 | 247130 | 251537
26 | 55:53.63 | 1:16.05 | 251538 | 257242
27 | 57:09.68 | 1:14.62 | 257243 | 262854
28 | 58:24.55 | 0:51.55 | 262855 | 266734
29 | 59:16.35 | 2:03.65 | 266735 | 276024
30 | 61:20.25 | 1:05.44 | 276025 | 280943
31 | 62:25.69 | 1:48.58 | 280944 | 289101
32 | 64:14.52 | 7:50.32 | 289102 | 324383
33 | 72:05.09 | 1:29.04 | 324384 | 331062
34 | 73:34.13 | 3:07.62 | 331063 | 345149

Range status and errors
Selected range
Filename I:\ Torrent\Music\ My uploads\58 Futuristic\Daniele Lombardi - futurisMUSIC.wav
Peak level 99.6 %
Range quality 99.9 %
Copy CRC DF642E75
Copy OK
No errors occurred

End of status report

Packed via 7.Zip, served by RS, redirected through tinyurl:
Part1
Part2
Part3

Enjoy, after around 100 years…