Subcategories

Colosseum - Valentine Suite (1969)/Daughter of Time (1970) Remaster

Posted By: KGmB
Colosseum - Valentine Suite (1969)/Daughter of Time (1970) Remaster

Colosseum - Valentine Suite (1969)/Daughter of Time (1970) Remaster
EAC Rip | FLAC, Image + CUE, LOG | 272 MB | MP3 CBR 320 Kbps | 188 MB | Complete Scans | 34 MB
Rock, Jazz | Label: Vox Humana Ricordi | Catalog Number: CLCLCD 707002 | RAR 3% Rec. | RS.com, DF.com


Colosseum's second album, also in 1969, was Valentyne Suite, notable as the first release from Vertigo Records, the first label to sign heavy metal pioneers Black Sabbath. Vertigo Records was a branch of Philips, established to sign and develop artists that did not fit the main Philips Records brand.
Mark Clarke then replaced Tony Reeves on bass, and Hiseman recruited vocalist Chris Farlowe to enable Clempson to concentrate on guitar. This is considered to be the definitive Colosseum line-up, which recorded the 1970 album Daughter of Time.

Tracklist:

01. The Kettle (Heckstall-Smith/Hiseman) – 4:28
02. Elegy (Litherland) – 3:13
03. Butts Blues (Litherland) – 6:45
04. The Machine Demands a Sacrifice (Litherland/Heckstall-Smith/Brown/Hiseman) – 3:54
The Valentine Suite:
05. Theme One - Januarys Search (Greenslade/Hiseman) – 6:20
06. Theme Two - Februarys Valentyne (Greenslade/Hiseman) – 3:36
07. Theme Three - The Grass Is Always Greener (Heckstall-Smith/Hiseman) – 6:57

08. Three Score And Ten, Amen (Clempson/Greenslade/Hiseman) – 5:38
09. Time Lament (Greenslade) – 6:13
10. Take Me Back To Doomsday (Clempson/Greenslade/Hiseman) – 4:25
11. The Daughter Of Time (Dennan/Greenslade/Heckstall-Smith) – 3:33
12. Theme From An Imaginary Western (Brown/Bruce) – 4:07
13. Bring Out Your Dead (Clempson/Hiseman) – 4:20
14. Downhill And Shadows (Clempson/Hiseman/Reeves) – 6:13
15. The Time Machine (Hiseman) – 8:11 (live)

Personnel Valentine Suite:

Dave Greenslade - Hammond Organ, Vibraphone
Dick Heckstall-Smith - Saxophone
Jon Hiseman - Drums
James Litherland - Guitars, Vocals
Tony Reeves - Bass Guitars

Personnel Daughter of Time:

Mark Clarke - Bass Guitar (on 1,5,7)
Dave "Clem" Clempson - Guitar, Vocal on 3
Chris Farlowe - Vocals (on 1,2,4,5,7)
Louis Cennamo - Bass Guitar (on 2,3,4,6)
Dave Greenslade - Organ, Piano, Vibes, Vocals
Dick Heckstall-Smith - Saxophones, Spoken word on 1
Jon Hiseman - Drums, Percussion
Barbara Thompson - Flute, Saxophones, Vocals (on 1,2,3,4)

Produced by Gerry Bron

Exact Audio Copy V0.99 prebeta 4 from 23. January 2008

EAC extraction logfile from 5. May 2009, 23:48

Colosseum / Valentine Suite-Daughter of Time

Used drive : HL-DT-STRW/DVD GCC-4480B Adapter: 1 ID: 0

Read mode : Secure
Utilize accurate stream : Yes
Defeat audio cache : No
Make use of C2 pointers : Yes

Read offset correction : 6
Overread into Lead-In and Lead-Out : No
Fill up missing offset samples with silence : Yes
Delete leading and trailing silent blocks : No
Null samples used in CRC calculations : No
Used interface : Installed external ASPI interface

Used output format : User Defined Encoder
Selected bitrate : 1024 kBit/s
Quality : High
Add ID3 tag : Yes
Command line compressor : C:\Program Files\codecs\flac.exe
Additional command line options : –best -T "ARTIST=%a" -T "TITLE=%t" -T "ALBUM=%g" -T

"DATE=%y" -T "TRACKNUMBER=%n" -T "GENRE=%m" -T "COMMENT=%m" %s


TOC of the extracted CD

Track | Start | Length | Start sector | End sector
––––––––––––––––––––––––––––-
1 | 0:00.00 | 4:28.35 | 0 | 20134
2 | 4:28.35 | 3:13.42 | 20135 | 34651
3 | 7:42.02 | 6:45.50 | 34652 | 65076
4 | 14:27.52 | 3:54.65 | 65077 | 82691
5 | 18:22.42 | 6:19.63 | 82692 | 111179
6 | 24:42.30 | 3:36.40 | 111180 | 127419
7 | 28:18.70 | 6:58.59 | 127420 | 158828
8 | 35:17.54 | 5:38.52 | 158829 | 184230
9 | 40:56.31 | 6:13.03 | 184231 | 212208
10 | 47:09.34 | 4:25.65 | 212209 | 232148
11 | 51:35.24 | 3:33.27 | 232149 | 248150
12 | 55:08.51 | 4:07.30 | 248151 | 266705
13 | 59:16.06 | 4:20.35 | 266706 | 286240
14 | 63:36.41 | 6:13.55 | 286241 | 314270
15 | 69:50.21 | 8:08.28 | 314271 | 350898


Range status and errors

Selected range

Filename D:\Uploads\Colosseum - Valentine Suite-Daughter of Time 1970\Colosseum -

Valentine Suite-Daughter of Time.wav

Suspicious position 0:05:45

Peak level 97.0 %
Range quality 99.9 %
Test CRC E7522EAD
Copy CRC 647F75BC
Copy finished

There were errors


AccurateRip summary

Track 1 not present in database
Track 2 not present in database
Track 3 not present in database
Track 4 not present in database
Track 5 not present in database
Track 6 not present in database
Track 7 not present in database
Track 8 not present in database
Track 9 not present in database
Track 10 not present in database
Track 11 not present in database
Track 12 not present in database
Track 13 not present in database
Track 14 not present in database
Track 15 not present in database

None of the tracks are present in the AccurateRip database

End of status report


Download Rapidshare:

in Lossless
part1 | part2 | part3

MP3 lossy files
part1 | part2

Artwork
Covers

Download Depositfiles:

MP3 lossy files
part1 | part2

Artwork
covers

Don't post mirrors, please