Subcategories

Concrete Blonde – Still In Hollywood (1994)

Posted By: muddboogers
Concrete Blonde – Still In Hollywood (1994)

Concrete Blonde – Still In Hollywood (1994)
EAC | FLAC Image with CUE & LOG | 69:00 mins | Scans | RAR 3% Recovery | 474 MB
Alternative Rock | 1994 I.R.S. Records, Columbia House #X2-29128

With their brief moment of commercial success having long since faded, Concrete Blonde had essentially split by the time this collection was released. For fans, it's a well-conceived treat, gathering together many of the band's non-album tracks (although most had been available as B-sides). There's really not a track that won't be a delight to the band's devoted following. There are a handful of well-chosen cover songs. Leonard Cohen's "Everybody Knows" is given a suitably ominous treatment and there is a beautiful, heartfelt take on the Cheap Trick ballad "Mandocello." Early college radio hit "God Is a Bullet" appears as a brutal live version (with some searing guitar work from James Mankey). The band's punk roots show on another live track, "The Sky Is a Poisonous Garden," and the chilling "Tomorrow, Wendy" retains its potency in a sparse, stripped-down version, showing off Johnette Napalitano's compelling vocal abilities. The B-side originals are consistently good, with the swaggering, loner lyrics and Mankey's spidery, twang guitar making "100 Games of Solitaire" especially noteworthy. The liner notes are concise, but informative, and Still in Hollywood is a well-done packaging of work that reinforces Concrete Blonde as a very talented creative unit. ~ Tom Demalon, allmusic.com
Still In Hollywood @ Discogs

Tracklist:
1. It'll Chew You Up And Spit You Out
2. Everybody Knows
3. Free
4. God Is A Bullet (Live)
5. Probably Will
6. Mandocello
7. The Ship Song
8. Joey (Acoustic)
9. Little Wing
10. Roses Grow (Live)
11. The Sky Is A Poisonous Garden (Live)
12. Bloodletting (The Vampire Song) (Extended Version)
13. Simple Twist Of Fate
14. Side Of The Road
15. 100 Games Of Solitaire
16. Tomorrow, Wendy (Live)

Track 4 Recorded March 17th, 1991 @ The Vic, Chicago
Track 8 Recorded Live On "Hangin With MTV"
Tracks 10, 11 & 16 Recorded @ The Malibu Nightclub, Long Island, NY For WDRE

Exact Audio Copy V1.0 beta 2 from 29. April 2011

EAC extraction logfile from 6. August 2011, 11:25

Concrete Blonde / Still In Hollywood

Used drive : TDK CDRW4800B Adapter: 2 ID: 1

Read mode : Secure
Utilize accurate stream : Yes
Defeat audio cache : Yes
Make use of C2 pointers : No

Read offset correction : 6
Overread into Lead-In and Lead-Out : No
Fill up missing offset samples with silence : Yes
Delete leading and trailing silent blocks : No
Null samples used in CRC calculations : Yes
Used interface : Native Win32 interface for Win NT & 2000

Used output format : Internal WAV Routines
Sample format : 44.100 Hz; 16 Bit; Stereo


TOC of the extracted CD

Track | Start | Length | Start sector | End sector
––––––––––––––––––––––––––––-
1 | 0:00.00 | 4:34.45 | 0 | 20594
2 | 4:34.45 | 4:44.62 | 20595 | 41956
3 | 9:19.32 | 3:12.20 | 41957 | 56376
4 | 12:31.52 | 4:21.43 | 56377 | 75994
5 | 16:53.20 | 2:51.52 | 75995 | 88871
6 | 19:44.72 | 4:23.30 | 88872 | 108626
7 | 24:08.27 | 4:20.33 | 108627 | 128159
8 | 28:28.60 | 4:08.55 | 128160 | 146814
9 | 32:37.40 | 4:13.72 | 146815 | 165861
10 | 36:51.37 | 3:08.40 | 165862 | 180001
11 | 40:00.02 | 4:06.33 | 180002 | 198484
12 | 44:06.35 | 7:07.70 | 198485 | 230579
13 | 51:14.30 | 5:44.52 | 230580 | 256431
14 | 56:59.07 | 4:38.18 | 256432 | 277299
15 | 61:37.25 | 3:37.02 | 277300 | 293576
16 | 65:14.27 | 4:28.28 | 293577 | 313704


Range status and errors

Selected range

Filename E:\[# AvaxHome #]\Concrete Blonde - Still In Hollywood.wav

Peak level 100.0 %
Extraction speed 10.2 X
Range quality 100.0 %
Test CRC D4EE07E9
Copy CRC D4EE07E9
Copy OK

No errors occurred


AccurateRip summary

Track 1 accurately ripped (confidence 6) [B78343EC] (AR v1)
Track 2 accurately ripped (confidence 6) [ED12CE8F] (AR v1)
Track 3 accurately ripped (confidence 7) [8D7EE37B] (AR v1)
Track 4 accurately ripped (confidence 7) [F110016A] (AR v1)
Track 5 accurately ripped (confidence 7) [0D7A52AC] (AR v1)
Track 6 accurately ripped (confidence 7) [426499C0] (AR v1)
Track 7 accurately ripped (confidence 7) [5379D9BE] (AR v1)
Track 8 accurately ripped (confidence 7) [276CF7EB] (AR v1)
Track 9 accurately ripped (confidence 7) [567DE790] (AR v1)
Track 10 accurately ripped (confidence 7) [9B946CB5] (AR v1)
Track 11 accurately ripped (confidence 7) [D172C661] (AR v1)
Track 12 accurately ripped (confidence 7) [4D3554A1] (AR v1)
Track 13 accurately ripped (confidence 7) [A453ABB0] (AR v1)
Track 14 accurately ripped (confidence 7) [2B63D6D7] (AR v1)
Track 15 accurately ripped (confidence 7) [ECE74595] (AR v1)
Track 16 accurately ripped (confidence 7) [367E2EC4] (AR v1)

All tracks accurately ripped

End of status report

==== Log checksum CB0253786B96BB8AB2BFA5C975E561227D181A5CAD5500A9411F203253E277A8 ====

FileServe
Part 1
Part 2

FileSonic
Part 1
Part 2

Interchangeable archives

Password: www.AvaxHome.ws