Subcategories

Count Basie & His Atomic Band - Complete Live At The Crescendo 1958 (2016) {5CD Box Set Phono Records 870245}

Posted By: ruskaval
Count Basie & His Atomic Band - Complete Live At The Crescendo 1958 (2016) {5CD Box Set Phono Records 870245}

Count Basie & His Atomic Band - Complete Live At The Crescendo 1958 (2016) {5CD Box Set Phono Records 870245}
EAC rip (secure mode) | FLAC (tracks)+CUE+LOG -> 1.97 Gb | MP3 @320 -> 846 Mb
Full Artwork @ 600 dpi (jpg) -> 97 Mb | 5% repair rar
© 1958, 2016 Phono Records | 870245
Jazz / Big Band / Bop / Swing

This superb 5-CD collection compiles all existing live recordings made by the Atomic band at the Crescendo Club, in Hollywood, in the summer of 1958, for the first time ever on a single edition. The sound quality is excellent throughout the set.

Count Basie’s career was revived in late 1957 thanks to the success of the Neal Hefti-arranged LP Atomic Basie, which became one of his biggest hits. The orchestra was filled with stars, and Joe Williams’ vocals were heard to great effect supported by Hefti’s excellent scores and the superb quality of the band.

This long unavailable material includes amazing extended live versions of many of the perennial Hefti arrangements, plus a variety of songs that formed part of the orchestra’s repertoire at the time, and Sammy Davis Jr. as a guest star singing with the band on Ray Charles’ “Hallelujah, I Love Her So”.

As a bonus, the soundtrack from a complete 17-minute TV show featuring the same band shortly before it started the Crescendo engagement. Our comprehensive booklet contains detailed information, as well as a rare Count Basie interview published in Down Beat during the band’s stay at the Crescendo.
Count Basie & His Atomic Band - Complete Live At The Crescendo 1958 (2016) {5CD Box Set Phono Records 870245}

This is the first time these July 1958 recordings have been released in one package. Years ago some of this music was issued on the two volumes titled "Count On The Coast". There's about six hours of music featuring one of Basie's best groups. While Basie's early work in the late '30s is a high point because he had such great musicians, this '58 band, using Neal Hefti arrangements, is pretty hot sounding. And when you add Joe Williams' vocals (with Sammy Davis, Jr. on one track), this set is pretty near the top of great Basie live releases. I heard a pre-release set–-hopefully this will be available soon. I was lucky enough to purchase this set for twenty bucks and change, so look around. Each disc slips into a cardboard jacket and everything fits inside a classy looking glossy clam shell box.

Audiophiles may quibble about the sound–you can hear patrons at the Crescendo clapping encouragement–but overall the sound is very good (the club/patron sounds give this music an atmospheric feel of authenticity), fairly crisp and clean with each instrument adding to the sound, with Williams' vocals sounding warm and clean at the front of the mix. It's not clear who recorded the Basie band–perhaps Gene Norman, owner of the Crescendo Club? And there's no way to tell in what order and on what night (the band played the club from June 24th to July 2nd in '58) these tracks were recorded. But in a nutshell–for recordings from a club in 1958–this is a great document of that period of the Basie band musically and Williams vocally. And check out the songs the band played–including extended versions of many fan's favorite tunes. And with musicians like Frank Foster, Frank Wess, Joe Newman, Thad Jones, Snooky Young, Al Grey, and other players equally fine, this is a hard band to beat for exciting playing.

Count Basie & His Atomic Band - Complete Live At The Crescendo 1958 (2016) {5CD Box Set Phono Records 870245}


This set was recorded around the "Atomic Basie" era (the "Atomic" album is a great set but be careful which album you purchase–the original, the complete, or the version with the Troup soundtrack), with performances that received acclaim from fans and critics alike. So this particular band was playing near the top of their game during their stay at the Crescendo Club in L.A. Also here is a short (17 minutes approximately) soundtrack from "Bobby Troup's Stars Of Jazz" TV show, recorded the month before the Crescendo stand. It too is a valuable and exciting look at the Basie band from this period. But this too has been issued before and is still available on one of the "Atomic Basie" sets above.

There's a 20 page booklet included that's informative and interesting, including a Downbeat interview with Basie from the Crescendo period, along with period photos. All in all this is a one of the best releases of it's kind, and (I think) one of Basie's best live releases. Fans of Basie will probably feel this is one of the best reissues of 2016, and they may be correct. This set is well worth adding to your shelf of Basie recordings–but it won't just sit on the shelf–not with tunes, arrangements, and playing of this caliber.
Count Basie & His Atomic Band - Complete Live At The Crescendo 1958 (2016) {5CD Box Set Phono Records 870245}


Personnel:
COUNT BASIE, piano, leader
THAD JONES, SNOOKY YOUNG, WENDELL CULLEY, JOE NEWMAN, trumpet
BENNY POWELL, HENRY COKER, AL GREY, trombone
FRANK WESS, alto & tenor sax, flute
MARSHALL ROYAL, alto sax, clarinet
BILLY MITCHELL, FRANK FOSTER, tenor sax
CHARLIE FOWLES, baritone sax
FREDDIE GREEN, guitar
EDDIE JONES, bass
SONNY PAYNE, drums
FRANK WESS, alto sax, tenor sax, flute
MARSHALL ROYAL, alto sax, clarinet

All vocals by JOE WILLIAMS with the exception of “Hallelujah, I Love Her So”, on which SAMMY DAVIS Jr. is the guest vocalist.

All tracks recorded live at the Crescendo Club, Los Angeles, June 24-July 2, 1958.

(*) BONUS TRACKS:
CD5 [10-15]: Same personnel.
NBC-TV Cast, “Bobby Troup’s Stars of Jazz”, Los Angeles, June 23, 1958.


Count Basie & His Atomic Band - Complete Live At The Crescendo 1958 (2016) {5CD Box Set Phono Records 870245}


tracklist:
CD 1: Total Time: 77:19

01. MOTEN SWING #1
02. CUTE #1
03. SWEETIE CAKES
04. INDIAN SUMMER
05. JUMPIN’ AT THE WOODSIDE #1
06. PLYMOUTH ROCK #1
07. FLIGHT OF THE FOO BIRDS
08. LI’L DARLING #1
09. LOW LIFE
10. WHIRLY-BIRD #1
11. SWINGIN’ THE BLUES
12. BLUE ON BLUE #1
13. NO MOON AT ALL
14. WELL, ALL RIGHT, OKAY, YOU WIN
15. FANCY MEETING YOU
16. SLATS
17. H.R.H. [HER ROYAL HIGHNESS] #1
18. DUET
19. TEDDY THE TOAD #1

Count Basie & His Atomic Band - Complete Live At The Crescendo 1958 (2016) {5CD Box Set Phono Records 870245}


CD 2: Total Time: 74:09
01. SMACK DAB IN THE MIDDLE
02. PENSIVE MISS
03. ONE O’CLOCK JUMP #1
04. COUNTING THE BLUES
05. LULLABY OF BIRDLAND
06. I’VE GOT A GIRL
07. YOU’RE A MEMORY
08. SCOOT
09. WHO, ME?
10. THE KID FROM RED BANK #1
11. LATE DATE
12. STOP, PRETTY BABY
13. GEE, BABY AIN’T I GOOD TO YOU
14. SHINY STOCKINGS #1
15. APRIL IN PARIS
16. BLUES IN FRANKIE’S FLAT
17. IN A MELLOW TONE #1
18. TWO TIME LOVER
19. FANTAIL
20. HALLELUJAH, I LOVE HER SO

Count Basie & His Atomic Band - Complete Live At The Crescendo 1958 (2016) {5CD Box Set Phono Records 870245}


CD 3: Total Time: 70:11
01. CORNER POCKET #1
02. MY BABY UPSETS ME
03. CHERRY POINT
04. EVERY DAY
05. HOW HIGH THE MOON #1
06. FIVE O’CLOCK IN THE MORNING
07. BLUE ON BLUE #2
08. THE COMEBACK
09. WHIRLY-BIRD #2
10. THOU SWELL
11. TEACH ME TONIGHT
12. MOTEN SWING #2
13. PIGALLE LOVE
14. ONE O’CLOCK JUMP #2
15. G’WAN AWAY
16. YOGI [aka YOHL]
17. BAG-A-BONES #1
18. ONE O’CLOCK JUMP #3
19. SPRING IS HERE #1
20. BABY, BABY ALL THE TIME

Count Basie & His Atomic Band - Complete Live At The Crescendo 1958 (2016) {5CD Box Set Phono Records 870245}


CD 4: Total Time: 76:25
01. LITTLE PONY #1
02. OL’ MAN RIVER #1
03. THE MIDGETS
04. WHIRLY-BIRD #3
05. BASIE-BOOGIE
06. THE DEACON
07. CUTE #2
08. OL’ MAN RIVER #2
09. THE KID FROM RED BANK #2
10. SPRING IS HERE #2
11. WHY NOT?
12. CORNER POCKET #2
13. LITTLE PONY #2
14. BLEE BLOP BLUES
15. BUBBLES
16. HOW HIGH THE MOON #2
17. YOU’RE NOT THE KIND

Count Basie & His Atomic Band - Complete Live At The Crescendo 1958 (2016) {5CD Box Set Phono Records 870245}


CD 5: Total Time: 60:03
01. TEDDY THE TOAD #2
02. JUMPIN’ AT THE WOODSIDE #2
03. BLUES BACKSTAGE
04. PEACE PIPE
05. PLYMOUTH ROCK #2
06. SHINY STOCKINGS #2
07. H.R.H. [HER ROYAL HIGHNESS] #2
08. BAG-A-BONES #2
09. IN A MELLOW TONE #2
10. WHIRLY-BIRD (*)
11. CUTE 3:41 (*)
12. THOU SWELL 1:47 (*)
13. FIVE O’CLOCK IN THE MORNING 2:55 (*)
14. BLEE BLOP BLUES 2:20 (*)
15. ONE O’CLOCK JUMP 3:24 (*)

Count Basie & His Atomic Band - Complete Live At The Crescendo 1958 (2016) {5CD Box Set Phono Records 870245}


Exact Audio Copy V1.1 from 23. June 2015

EAC extraction logfile from 29. April 2016, 9:51

Count Basie & His Atomic Band / Complete Live At The Crescendo 1958 (CD1)

Used drive : TSSTcorpCDDVDW SE-208DB Adapter: 1 ID: 0

Read mode : Secure
Utilize accurate stream : Yes
Defeat audio cache : Yes
Make use of C2 pointers : No

Read offset correction : 6
Overread into Lead-In and Lead-Out : No
Fill up missing offset samples with silence : Yes
Delete leading and trailing silent blocks : No
Null samples used in CRC calculations : Yes
Used interface : Native Win32 interface for Win NT & 2000
Gap handling : Appended to previous track

Used output format : User Defined Encoder
Selected bitrate : 1024 kBit/s
Quality : High
Add ID3 tag : No
Command line compressor : C:\Program Files (x86)\FLAC Frontend\tools\flac.exe
Additional command line options : -8 -V -T "ARTIST=%artist%" -T "TITLE=%title%" -T "ALBUM=%albumtitle%" -T "DATE=%year%" -T "TRACKNUMBER=%tracknr%" -T "TOTALTRACKS=%numtracks%" -T "GENRE=%genre%" -T "ALBUMARTIST=%albumartist%" -T "ALBUM ARTIST=%albumartist%" -T "COMMENT=EAC Secure Mode, Test & Copy, AccurateRip, FLAC -8" %source%


TOC of the extracted CD

Track | Start | Length | Start sector | End sector
––––––––––––––––––––––––––––-
1 | 0:00.00 | 5:50.50 | 0 | 26299
2 | 5:50.50 | 3:50.07 | 26300 | 43556
3 | 9:40.57 | 4:28.63 | 43557 | 63719
4 | 14:09.45 | 3:09.04 | 63720 | 77898
5 | 17:18.49 | 4:14.66 | 77899 | 97014
6 | 21:33.40 | 6:43.61 | 97015 | 127300
7 | 28:17.26 | 3:55.07 | 127301 | 144932
8 | 32:12.33 | 3:57.42 | 144933 | 162749
9 | 36:10.00 | 4:53.21 | 162750 | 184745
10 | 41:03.21 | 4:03.03 | 184746 | 202973
11 | 45:06.24 | 4:01.57 | 202974 | 221105
12 | 49:08.06 | 3:23.01 | 221106 | 236331
13 | 52:31.07 | 2:43.68 | 236332 | 248624
14 | 55:15.00 | 3:05.20 | 248625 | 262519
15 | 58:20.20 | 2:49.34 | 262520 | 275228
16 | 61:09.54 | 6:22.35 | 275229 | 303913
17 | 67:32.14 | 2:35.72 | 303914 | 315610
18 | 70:08.11 | 4:07.01 | 315611 | 334136
19 | 74:15.12 | 3:04.02 | 334137 | 347938


Track 1

Filename D:\_EAC\Count Basie - Complete Live At The Crescendo 1958 (2016) [FLAC]\CD1\01 - Moten Swing #1.wav

Pre-gap length 0:00:02.00

Peak level 91.2 %
Extraction speed 1.2 X
Track quality 100.0 %
Test CRC 3E65613A
Copy CRC 3E65613A
Accurately ripped (confidence 1) [C0837C4B] (AR v2)
Copy OK

Track 2

Filename D:\_EAC\Count Basie - Complete Live At The Crescendo 1958 (2016) [FLAC]\CD1\02 - Cute #1.wav

Peak level 91.2 %
Extraction speed 1.1 X
Track quality 99.9 %
Test CRC 81EC45F3
Copy CRC 81EC45F3
Accurately ripped (confidence 1) [1810A14D] (AR v2)
Copy OK

Track 3

Filename D:\_EAC\Count Basie - Complete Live At The Crescendo 1958 (2016) [FLAC]\CD1\03 - Sweetie Cakes.wav

Peak level 91.2 %
Extraction speed 1.3 X
Track quality 100.0 %
Test CRC 0C40161C
Copy CRC 0C40161C
Accurately ripped (confidence 1) [E54A43C4] (AR v2)
Copy OK

Track 4

Filename D:\_EAC\Count Basie - Complete Live At The Crescendo 1958 (2016) [FLAC]\CD1\04 - Indian Summer.wav

Peak level 91.2 %
Extraction speed 1.3 X
Track quality 100.0 %
Test CRC 8DB3A1A2
Copy CRC 8DB3A1A2
Accurately ripped (confidence 1) [16BA3F96] (AR v2)
Copy OK

Track 5

Filename D:\_EAC\Count Basie - Complete Live At The Crescendo 1958 (2016) [FLAC]\CD1\05 - Jumpin' At The Woodside #1.wav

Peak level 91.2 %
Extraction speed 1.4 X
Track quality 100.0 %
Test CRC 843A04F3
Copy CRC 843A04F3
Accurately ripped (confidence 1) [8500886E] (AR v2)
Copy OK

Track 6

Filename D:\_EAC\Count Basie - Complete Live At The Crescendo 1958 (2016) [FLAC]\CD1\06 - Plymouth Rock #1.wav

Peak level 91.2 %
Extraction speed 1.6 X
Track quality 100.0 %
Test CRC 4DF3E5F9
Copy CRC 4DF3E5F9
Accurately ripped (confidence 1) [B2D140C7] (AR v2)
Copy OK

Track 7

Filename D:\_EAC\Count Basie - Complete Live At The Crescendo 1958 (2016) [FLAC]\CD1\07 - Flight At The Foo Birds.wav

Peak level 91.2 %
Extraction speed 1.6 X
Track quality 100.0 %
Test CRC 71F81594
Copy CRC 71F81594
Accurately ripped (confidence 1) [AE7005AB] (AR v2)
Copy OK

Track 8

Filename D:\_EAC\Count Basie - Complete Live At The Crescendo 1958 (2016) [FLAC]\CD1\08 - Lil' Darling #1.wav

Peak level 63.5 %
Extraction speed 1.6 X
Track quality 100.0 %
Test CRC 8CD20E1F
Copy CRC 8CD20E1F
Accurately ripped (confidence 1) [D9FF7F66] (AR v2)
Copy OK

Track 9

Filename D:\_EAC\Count Basie - Complete Live At The Crescendo 1958 (2016) [FLAC]\CD1\09 - Low Life.wav

Peak level 91.2 %
Extraction speed 1.7 X
Track quality 100.0 %
Test CRC B0A5EED7
Copy CRC B0A5EED7
Accurately ripped (confidence 1) [9C335A65] (AR v2)
Copy OK

Track 10

Filename D:\_EAC\Count Basie - Complete Live At The Crescendo 1958 (2016) [FLAC]\CD1\10 - Whirly-Bird #1.wav

Peak level 91.2 %
Extraction speed 1.5 X
Track quality 99.9 %
Test CRC B97EDD0F
Copy CRC B97EDD0F
Accurately ripped (confidence 1) [A511FFA2] (AR v2)
Copy OK

Track 11

Filename D:\_EAC\Count Basie - Complete Live At The Crescendo 1958 (2016) [FLAC]\CD1\11 - Swingin' The Blues.wav

Peak level 91.2 %
Extraction speed 1.8 X
Track quality 100.0 %
Test CRC 6A898E82
Copy CRC 6A898E82
Accurately ripped (confidence 1) [6CD83954] (AR v2)
Copy OK

Track 12

Filename D:\_EAC\Count Basie - Complete Live At The Crescendo 1958 (2016) [FLAC]\CD1\12 - Blue On Blue #1.wav

Peak level 91.2 %
Extraction speed 1.8 X
Track quality 100.0 %
Test CRC B3F003D0
Copy CRC B3F003D0
Accurately ripped (confidence 1) [2CBCBFF3] (AR v2)
Copy OK

Track 13

Filename D:\_EAC\Count Basie - Complete Live At The Crescendo 1958 (2016) [FLAC]\CD1\13 - No Moon At All.wav

Peak level 91.2 %
Extraction speed 1.7 X
Track quality 100.0 %
Test CRC A5114238
Copy CRC A5114238
Accurately ripped (confidence 1) [C4114715] (AR v2)
Copy OK

Track 14

Filename D:\_EAC\Count Basie - Complete Live At The Crescendo 1958 (2016) [FLAC]\CD1\14 - Well, All Right, Okay, You Win.wav

Peak level 91.2 %
Extraction speed 1.5 X
Track quality 99.9 %
Test CRC B4DC34B9
Copy CRC B4DC34B9
Accurately ripped (confidence 1) [1E781945] (AR v2)
Copy OK

Track 15

Filename D:\_EAC\Count Basie - Complete Live At The Crescendo 1958 (2016) [FLAC]\CD1\15 - Fancy Meeting You.wav

Peak level 91.2 %
Extraction speed 1.8 X
Track quality 100.0 %
Test CRC 9EF7594D
Copy CRC 9EF7594D
Accurately ripped (confidence 1) [67B9EEDB] (AR v2)
Copy OK

Track 16

Filename D:\_EAC\Count Basie - Complete Live At The Crescendo 1958 (2016) [FLAC]\CD1\16 - Slats.wav

Peak level 91.2 %
Extraction speed 1.9 X
Track quality 99.9 %
Test CRC 11A7BF02
Copy CRC 11A7BF02
Accurately ripped (confidence 1) [AD2CA118] (AR v2)
Copy OK

Track 17

Filename D:\_EAC\Count Basie - Complete Live At The Crescendo 1958 (2016) [FLAC]\CD1\17 - H.R.H. [Her Royal Highness] #1.wav

Peak level 91.2 %
Extraction speed 1.8 X
Track quality 100.0 %
Test CRC 1A1D8630
Copy CRC 1A1D8630
Accurately ripped (confidence 1) [90B77A6F] (AR v2)
Copy OK

Track 18

Filename D:\_EAC\Count Basie - Complete Live At The Crescendo 1958 (2016) [FLAC]\CD1\18 - Duet.wav

Peak level 91.2 %
Extraction speed 1.7 X
Track quality 99.9 %
Test CRC 904F7233
Copy CRC 904F7233
Accurately ripped (confidence 1) [28DBE9DB] (AR v2)
Copy OK

Track 19

Filename D:\_EAC\Count Basie - Complete Live At The Crescendo 1958 (2016) [FLAC]\CD1\19 - Teddy The Toad #1.wav

Peak level 91.2 %
Extraction speed 1.9 X
Track quality 100.0 %
Test CRC AAFFE36C
Copy CRC AAFFE36C
Accurately ripped (confidence 1) [B5A80160] (AR v2)
Copy OK


All tracks accurately ripped

No errors occurred

End of status report

==== Log checksum 600AD85C0C098C8497B0A5A5583F5E19567FC25516DCC6B29A98577416432526 ====

Exact Audio Copy V1.1 from 23. June 2015

EAC extraction logfile from 29. April 2016, 11:03

Count Basie & His Atomic Band / Complete Live At The Crescendo 1958 (CD2)

Used drive : TSSTcorpCDDVDW SE-208DB Adapter: 1 ID: 0

Read mode : Secure
Utilize accurate stream : Yes
Defeat audio cache : Yes
Make use of C2 pointers : No

Read offset correction : 6
Overread into Lead-In and Lead-Out : No
Fill up missing offset samples with silence : Yes
Delete leading and trailing silent blocks : No
Null samples used in CRC calculations : Yes
Used interface : Native Win32 interface for Win NT & 2000
Gap handling : Appended to previous track

Used output format : User Defined Encoder
Selected bitrate : 1024 kBit/s
Quality : High
Add ID3 tag : No
Command line compressor : C:\Program Files (x86)\FLAC Frontend\tools\flac.exe
Additional command line options : -8 -V -T "ARTIST=%artist%" -T "TITLE=%title%" -T "ALBUM=%albumtitle%" -T "DATE=%year%" -T "TRACKNUMBER=%tracknr%" -T "TOTALTRACKS=%numtracks%" -T "GENRE=%genre%" -T "ALBUMARTIST=%albumartist%" -T "ALBUM ARTIST=%albumartist%" -T "COMMENT=EAC Secure Mode, Test & Copy, AccurateRip, FLAC -8" %source%


TOC of the extracted CD

Track | Start | Length | Start sector | End sector
––––––––––––––––––––––––––––-
1 | 0:00.00 | 3:21.00 | 0 | 15074
2 | 3:21.00 | 3:29.00 | 15075 | 30749
3 | 6:50.00 | 3:25.38 | 30750 | 46162
4 | 10:15.38 | 3:50.39 | 46163 | 63451
5 | 14:06.02 | 4:30.72 | 63452 | 83773
6 | 18:36.74 | 2:53.27 | 83774 | 96775
7 | 21:30.26 | 3:04.03 | 96776 | 110578
8 | 24:34.29 | 2:58.22 | 110579 | 123950
9 | 27:32.51 | 4:32.62 | 123951 | 144412
10 | 32:05.38 | 3:23.09 | 144413 | 159646
11 | 35:28.47 | 4:08.28 | 159647 | 178274
12 | 39:37.00 | 3:04.38 | 178275 | 192112
13 | 42:41.38 | 2:29.20 | 192113 | 203307
14 | 45:10.58 | 5:06.21 | 203308 | 226278
15 | 50:17.04 | 3:54.50 | 226279 | 243878
16 | 54:11.54 | 5:18.00 | 243879 | 267728
17 | 59:29.54 | 6:18.59 | 267729 | 296137
18 | 65:48.38 | 2:30.63 | 296138 | 307450
19 | 68:19.26 | 2:47.29 | 307451 | 320004
20 | 71:06.55 | 3:02.47 | 320005 | 333701


Track 1

Filename D:\_EAC\Count Basie - Complete Live At The Crescendo 1958 (2016) [FLAC]\CD2\01 - Smack Dab In The Middle.wav

Pre-gap length 0:00:02.00

Peak level 91.2 %
Extraction speed 2.8 X
Track quality 100.0 %
Test CRC 9BE129CC
Copy CRC 9BE129CC
Accurately ripped (confidence 1) [E6EEEA95] (AR v2)
Copy OK

Track 2

Filename D:\_EAC\Count Basie - Complete Live At The Crescendo 1958 (2016) [FLAC]\CD2\02 - Pensive Miss.wav

Peak level 91.2 %
Extraction speed 3.1 X
Track quality 100.0 %
Test CRC D2385F72
Copy CRC D2385F72
Accurately ripped (confidence 1) [7CFB7774] (AR v2)
Copy OK

Track 3

Filename D:\_EAC\Count Basie - Complete Live At The Crescendo 1958 (2016) [FLAC]\CD2\03 - One O'Clock Jump #1.wav

Peak level 91.2 %
Extraction speed 2.6 X
Track quality 99.9 %
Test CRC 1AB7D0B5
Copy CRC 1AB7D0B5
Accurately ripped (confidence 1) [43D50A4E] (AR v2)
Copy OK

Track 4

Filename D:\_EAC\Count Basie - Complete Live At The Crescendo 1958 (2016) [FLAC]\CD2\04 - Counting The Blues.wav

Peak level 91.2 %
Extraction speed 3.6 X
Track quality 100.0 %
Test CRC 89A5E8CF
Copy CRC 89A5E8CF
Accurately ripped (confidence 1) [22C3BA31] (AR v2)
Copy OK

Track 5

Filename D:\_EAC\Count Basie - Complete Live At The Crescendo 1958 (2016) [FLAC]\CD2\05 - Lullaby Of Birdland.wav

Peak level 91.2 %
Extraction speed 3.9 X
Track quality 100.0 %
Test CRC 630E6880
Copy CRC 630E6880
Accurately ripped (confidence 1) [3F42E6B6] (AR v2)
Copy OK

Track 6

Filename D:\_EAC\Count Basie - Complete Live At The Crescendo 1958 (2016) [FLAC]\CD2\06 - I've Got A Girl.wav

Peak level 91.2 %
Extraction speed 3.8 X
Track quality 100.0 %
Test CRC E491BEE0
Copy CRC E491BEE0
Accurately ripped (confidence 1) [CD264548] (AR v2)
Copy OK

Track 7

Filename D:\_EAC\Count Basie - Complete Live At The Crescendo 1958 (2016) [FLAC]\CD2\07 - You're A Memory.wav

Peak level 91.2 %
Extraction speed 4.0 X
Track quality 100.0 %
Test CRC 2F258DD0
Copy CRC 2F258DD0
Accurately ripped (confidence 1) [E5DFFE26] (AR v2)
Copy OK

Track 8

Filename D:\_EAC\Count Basie - Complete Live At The Crescendo 1958 (2016) [FLAC]\CD2\08 - Scoot.wav

Peak level 91.2 %
Extraction speed 3.1 X
Track quality 99.9 %
Test CRC 90E565DF
Copy CRC 90E565DF
Accurately ripped (confidence 1) [7D64146D] (AR v2)
Copy OK

Track 9

Filename D:\_EAC\Count Basie - Complete Live At The Crescendo 1958 (2016) [FLAC]\CD2\09 - Who, Me_.wav

Peak level 91.2 %
Extraction speed 4.5 X
Track quality 100.0 %
Test CRC 2A290167
Copy CRC 2A290167
Accurately ripped (confidence 1) [6380A26E] (AR v2)
Copy OK

Track 10

Filename D:\_EAC\Count Basie - Complete Live At The Crescendo 1958 (2016) [FLAC]\CD2\10 - The Kid From Red Bank #1.wav

Peak level 91.2 %
Extraction speed 4.4 X
Track quality 100.0 %
Test CRC C6DD5D8A
Copy CRC C6DD5D8A
Accurately ripped (confidence 1) [F9AC31DC] (AR v2)
Copy OK

Track 11

Filename D:\_EAC\Count Basie - Complete Live At The Crescendo 1958 (2016) [FLAC]\CD2\11 - Late Date.wav

Peak level 85.3 %
Extraction speed 4.8 X
Track quality 100.0 %
Test CRC F333E8AE
Copy CRC F333E8AE
Accurately ripped (confidence 1) [62D083A0] (AR v2)
Copy OK

Track 12

Filename D:\_EAC\Count Basie - Complete Live At The Crescendo 1958 (2016) [FLAC]\CD2\12 - Stop, Pretty Baby.wav

Peak level 91.2 %
Extraction speed 4.7 X
Track quality 100.0 %
Test CRC CB1BE1CB
Copy CRC CB1BE1CB
Accurately ripped (confidence 1) [FAD4A292] (AR v2)
Copy OK

Track 13

Filename D:\_EAC\Count Basie - Complete Live At The Crescendo 1958 (2016) [FLAC]\CD2\13 - Gee, Baby Ain't I Good To You.wav

Peak level 91.2 %
Extraction speed 4.6 X
Track quality 100.0 %
Test CRC CDA55B7B
Copy CRC CDA55B7B
Accurately ripped (confidence 1) [5087E9F0] (AR v2)
Copy OK

Track 14

Filename D:\_EAC\Count Basie - Complete Live At The Crescendo 1958 (2016) [FLAC]\CD2\14 - Shiny Stockings #1.wav

Peak level 91.2 %
Extraction speed 5.3 X
Track quality 100.0 %
Test CRC 879EF90D
Copy CRC 879EF90D
Accurately ripped (confidence 1) [B3F92351] (AR v2)
Copy OK

Track 15

Filename D:\_EAC\Count Basie - Complete Live At The Crescendo 1958 (2016) [FLAC]\CD2\15 - April In Paris.wav

Peak level 91.2 %
Extraction speed 5.2 X
Track quality 100.0 %
Test CRC B18715A4
Copy CRC B18715A4
Accurately ripped (confidence 1) [B9E8A22F] (AR v2)
Copy OK

Track 16

Filename D:\_EAC\Count Basie - Complete Live At The Crescendo 1958 (2016) [FLAC]\CD2\16 - Blues In Frankie's Flat.wav

Peak level 91.2 %
Extraction speed 5.6 X
Track quality 100.0 %
Test CRC 03F5273A
Copy CRC 03F5273A
Accurately ripped (confidence 1) [EF9D35DA] (AR v2)
Copy OK

Track 17

Filename D:\_EAC\Count Basie - Complete Live At The Crescendo 1958 (2016) [FLAC]\CD2\17 - In A Mellow Tone #1.wav

Peak level 91.2 %
Extraction speed 5.1 X
Track quality 99.9 %
Test CRC 503F0612
Copy CRC 503F0612
Accurately ripped (confidence 1) [C5787BF2] (AR v2)
Copy OK

Track 18

Filename D:\_EAC\Count Basie - Complete Live At The Crescendo 1958 (2016) [FLAC]\CD2\18 - Two Time Lover.wav

Peak level 91.2 %
Extraction speed 5.3 X
Track quality 100.0 %
Test CRC 1F04EA71
Copy CRC 1F04EA71
Accurately ripped (confidence 1) [875DA2B3] (AR v2)
Copy OK

Track 19

Filename D:\_EAC\Count Basie - Complete Live At The Crescendo 1958 (2016) [FLAC]\CD2\19 - Fantail.wav

Peak level 91.2 %
Extraction speed 5.4 X
Track quality 100.0 %
Test CRC EA798A29
Copy CRC EA798A29
Accurately ripped (confidence 1) [A49D446B] (AR v2)
Copy OK

Track 20

Filename D:\_EAC\Count Basie - Complete Live At The Crescendo 1958 (2016) [FLAC]\CD2\20 - Hallelujah, I Love Her So.wav

Peak level 91.2 %
Extraction speed 4.2 X
Track quality 99.9 %
Test CRC 352AEA4E
Copy CRC 352AEA4E
Accurately ripped (confidence 1) [4670D024] (AR v2)
Copy OK


All tracks accurately ripped

No errors occurred

End of status report

==== Log checksum 081CD43302842B0B2FBF811D92599A9F45D79D2473C40283AA50A816EFC47BE5 ====

Exact Audio Copy V1.1 from 23. June 2015

EAC extraction logfile from 29. April 2016, 12:05

Count Basie & His Atomic Band / Complete Live At The Crescendo 1958 (CD3)

Used drive : TSSTcorpCDDVDW SE-208DB Adapter: 1 ID: 0

Read mode : Secure
Utilize accurate stream : Yes
Defeat audio cache : Yes
Make use of C2 pointers : No

Read offset correction : 6
Overread into Lead-In and Lead-Out : No
Fill up missing offset samples with silence : Yes
Delete leading and trailing silent blocks : No
Null samples used in CRC calculations : Yes
Used interface : Native Win32 interface for Win NT & 2000
Gap handling : Appended to previous track

Used output format : User Defined Encoder
Selected bitrate : 1024 kBit/s
Quality : High
Add ID3 tag : No
Command line compressor : C:\Program Files (x86)\FLAC Frontend\tools\flac.exe
Additional command line options : -8 -V -T "ARTIST=%artist%" -T "TITLE=%title%" -T "ALBUM=%albumtitle%" -T "DATE=%year%" -T "TRACKNUMBER=%tracknr%" -T "TOTALTRACKS=%numtracks%" -T "GENRE=%genre%" -T "ALBUMARTIST=%albumartist%" -T "ALBUM ARTIST=%albumartist%" -T "COMMENT=EAC Secure Mode, Test & Copy, AccurateRip, FLAC -8" %source%


TOC of the extracted CD

Track | Start | Length | Start sector | End sector
––––––––––––––––––––––––––––-
1 | 0:00.00 | 5:12.46 | 0 | 23445
2 | 5:12.46 | 3:54.11 | 23446 | 41006
3 | 9:06.57 | 4:53.18 | 41007 | 62999
4 | 14:00.00 | 5:03.53 | 63000 | 85777
5 | 19:03.53 | 3:36.16 | 85778 | 101993
6 | 22:39.69 | 3:14.06 | 101994 | 116549
7 | 25:54.00 | 3:10.40 | 116550 | 130839
8 | 29:04.40 | 4:04.30 | 130840 | 149169
9 | 33:08.70 | 3:30.07 | 149170 | 164926
10 | 36:39.02 | 1:52.06 | 164927 | 173332
11 | 38:31.08 | 3:00.11 | 173333 | 186843
12 | 41:31.19 | 5:33.10 | 186844 | 211828
13 | 47:04.29 | 3:56.61 | 211829 | 229589
14 | 51:01.15 | 1:34.48 | 229590 | 236687
15 | 52:35.63 | 4:05.56 | 236688 | 255118
16 | 56:41.44 | 3:20.61 | 255119 | 270179
17 | 60:02.30 | 2:42.05 | 270180 | 282334
18 | 62:44.35 | 0:56.60 | 282335 | 286594
19 | 63:41.20 | 3:34.66 | 286595 | 302710
20 | 67:16.11 | 2:56.38 | 302711 | 315948


Track 1

Filename D:\_EAC\Count Basie - Complete Live At The Crescendo 1958 (2016) [FLAC]\CD3\01 - Corner Pocket #1.wav

Pre-gap length 0:00:02.00

Peak level 91.2 %
Extraction speed 3.1 X
Track quality 100.0 %
Test CRC AACB46DE
Copy CRC AACB46DE
Accurately ripped (confidence 1) [A41989B3] (AR v2)
Copy OK

Track 2

Filename D:\_EAC\Count Basie - Complete Live At The Crescendo 1958 (2016) [FLAC]\CD3\02 - My Baby Upsets Me.wav

Peak level 91.2 %
Extraction speed 3.3 X
Track quality 100.0 %
Test CRC 97D72C51
Copy CRC 97D72C51
Accurately ripped (confidence 1) [E7893435] (AR v2)
Copy OK

Track 3

Filename D:\_EAC\Count Basie - Complete Live At The Crescendo 1958 (2016) [FLAC]\CD3\03 - Cherry Point.wav

Peak level 91.2 %
Extraction speed 3.6 X
Track quality 100.0 %
Test CRC 1EBEE59C
Copy CRC 1EBEE59C
Accurately ripped (confidence 1) [3784E8A7] (AR v2)
Copy OK

Track 4

Filename D:\_EAC\Count Basie - Complete Live At The Crescendo 1958 (2016) [FLAC]\CD3\04 - Everyday.wav

Peak level 91.2 %
Extraction speed 3.9 X
Track quality 100.0 %
Test CRC 4F183D1C
Copy CRC 4F183D1C
Accurately ripped (confidence 1) [E2143F24] (AR v2)
Copy OK

Track 5

Filename D:\_EAC\Count Basie - Complete Live At The Crescendo 1958 (2016) [FLAC]\CD3\05 - How High The Moon #1.wav

Peak level 91.2 %
Extraction speed 3.9 X
Track quality 100.0 %
Test CRC 346E6760
Copy CRC 346E6760
Accurately ripped (confidence 1) [1C79FBB5] (AR v2)
Copy OK

Track 6

Filename D:\_EAC\Count Basie - Complete Live At The Crescendo 1958 (2016) [FLAC]\CD3\06 - Five O'Clock In The Morning.wav

Peak level 91.2 %
Extraction speed 4.0 X
Track quality 100.0 %
Test CRC A64DD81C
Copy CRC A64DD81C
Accurately ripped (confidence 1) [201031B2] (AR v2)
Copy OK

Track 7

Filename D:\_EAC\Count Basie - Complete Live At The Crescendo 1958 (2016) [FLAC]\CD3\07 - Blue On Blue #2.wav

Peak level 91.2 %
Extraction speed 3.2 X
Track quality 99.9 %
Test CRC C68AB7C9
Copy CRC C68AB7C9
Accurately ripped (confidence 1) [0EAB91BD] (AR v2)
Copy OK

Track 8

Filename D:\_EAC\Count Basie - Complete Live At The Crescendo 1958 (2016) [FLAC]\CD3\08 - The Comeback.wav

Peak level 91.2 %
Extraction speed 4.5 X
Track quality 100.0 %
Test CRC 634528AB
Copy CRC 634528AB
Accurately ripped (confidence 1) [B4F06AF5] (AR v2)
Copy OK

Track 9

Filename D:\_EAC\Count Basie - Complete Live At The Crescendo 1958 (2016) [FLAC]\CD3\09 - Whirly-Bird #2.wav

Peak level 91.2 %
Extraction speed 4.5 X
Track quality 100.0 %
Test CRC BD746815
Copy CRC BD746815
Accurately ripped (confidence 1) [0B47A51E] (AR v2)
Copy OK

Track 10

Filename D:\_EAC\Count Basie - Complete Live At The Crescendo 1958 (2016) [FLAC]\CD3\10 - Thou Swell.wav

Peak level 91.2 %
Extraction speed 4.1 X
Track quality 100.0 %
Test CRC 55A0E3CA
Copy CRC 55A0E3CA
Accurately ripped (confidence 1) [D4A0C67C] (AR v2)
Copy OK

Track 11

Filename D:\_EAC\Count Basie - Complete Live At The Crescendo 1958 (2016) [FLAC]\CD3\11 - Teach Me Tonight.wav

Peak level 91.2 %
Extraction speed 4.6 X
Track quality 100.0 %
Test CRC F74AF57F
Copy CRC F74AF57F
Accurately ripped (confidence 1) [AB26678F] (AR v2)
Copy OK

Track 12

Filename D:\_EAC\Count Basie - Complete Live At The Crescendo 1958 (2016) [FLAC]\CD3\12 - Moten Swing #2.wav

Peak level 91.2 %
Extraction speed 5.2 X
Track quality 100.0 %
Test CRC A5BA621B
Copy CRC A5BA621B
Accurately ripped (confidence 1) [A352BCE4] (AR v2)
Copy OK

Track 13

Filename D:\_EAC\Count Basie - Complete Live At The Crescendo 1958 (2016) [FLAC]\CD3\13 - Pigalle Love.wav

Peak level 91.2 %
Extraction speed 5.2 X
Track quality 100.0 %
Test CRC 9596ABE8
Copy CRC 9596ABE8
Accurately ripped (confidence 1) [3C442BF5] (AR v2)
Copy OK

Track 14

Filename D:\_EAC\Count Basie - Complete Live At The Crescendo 1958 (2016) [FLAC]\CD3\14 - One O'Clock Jump #2.wav

Peak level 91.2 %
Extraction speed 4.2 X
Track quality 100.0 %
Test CRC 67B88405
Copy CRC 67B88405
Accurately ripped (confidence 1) [D6C43473] (AR v2)
Copy OK

Track 15

Filename D:\_EAC\Count Basie - Complete Live At The Crescendo 1958 (2016) [FLAC]\CD3\15 - G'wan Away.wav

Peak level 91.2 %
Extraction speed 5.4 X
Track quality 100.0 %
Test CRC 5B51CB76
Copy CRC 5B51CB76
Accurately ripped (confidence 1) [3658D461] (AR v2)
Copy OK

Track 16

Filename D:\_EAC\Count Basie - Complete Live At The Crescendo 1958 (2016) [FLAC]\CD3\16 - Yogi.wav

Peak level 75.4 %
Extraction speed 4.1 X
Track quality 99.9 %
Test CRC 9B06E84C
Copy CRC 9B06E84C
Accurately ripped (confidence 1) [82ABD985] (AR v2)
Copy OK

Track 17

Filename D:\_EAC\Count Basie - Complete Live At The Crescendo 1958 (2016) [FLAC]\CD3\17 - Bag-A-Bones #1.wav

Peak level 91.2 %
Extraction speed 5.2 X
Track quality 100.0 %
Test CRC 8BDF7F54
Copy CRC 8BDF7F54
Accurately ripped (confidence 1) [921494C6] (AR v2)
Copy OK

Track 18

Filename D:\_EAC\Count Basie - Complete Live At The Crescendo 1958 (2016) [FLAC]\CD3\18 - One O'Clock Jump #3.wav

Peak level 98.9 %
Extraction speed 3.7 X
Track quality 100.0 %
Test CRC BF753ABB
Copy CRC BF753ABB
Accurately ripped (confidence 1) [9FBE65F2] (AR v2)
Copy OK

Track 19

Filename D:\_EAC\Count Basie - Complete Live At The Crescendo 1958 (2016) [FLAC]\CD3\19 - Spring Is Here #1.wav

Peak level 91.2 %
Extraction speed 5.5 X
Track quality 100.0 %
Test CRC D6A55EE4
Copy CRC D6A55EE4
Accurately ripped (confidence 1) [42FAB714] (AR v2)
Copy OK

Track 20

Filename D:\_EAC\Count Basie - Complete Live At The Crescendo 1958 (2016) [FLAC]\CD3\20 - Baby, Baby All The Time.wav

Peak level 91.2 %
Extraction speed 5.5 X
Track quality 100.0 %
Test CRC FB03D1F3
Copy CRC FB03D1F3
Accurately ripped (confidence 1) [6D88E49D] (AR v2)
Copy OK


All tracks accurately ripped

No errors occurred

End of status report

==== Log checksum 7CEF553C13F228844D1E29435AD1114283536EC785481C5C5D30ECC63D17516C ====

Exact Audio Copy V1.1 from 23. June 2015

EAC extraction logfile from 29. April 2016, 13:12

Count Basie & His Atomic Band / Complete Live At The Crescendo 1958 (CD4)

Used drive : TSSTcorpCDDVDW SE-208DB Adapter: 1 ID: 0

Read mode : Secure
Utilize accurate stream : Yes
Defeat audio cache : Yes
Make use of C2 pointers : No

Read offset correction : 6
Overread into Lead-In and Lead-Out : No
Fill up missing offset samples with silence : Yes
Delete leading and trailing silent blocks : No
Null samples used in CRC calculations : Yes
Used interface : Native Win32 interface for Win NT & 2000
Gap handling : Appended to previous track

Used output format : User Defined Encoder
Selected bitrate : 1024 kBit/s
Quality : High
Add ID3 tag : No
Command line compressor : C:\Program Files (x86)\FLAC Frontend\tools\flac.exe
Additional command line options : -8 -V -T "ARTIST=%artist%" -T "TITLE=%title%" -T "ALBUM=%albumtitle%" -T "DATE=%year%" -T "TRACKNUMBER=%tracknr%" -T "TOTALTRACKS=%numtracks%" -T "GENRE=%genre%" -T "ALBUMARTIST=%albumartist%" -T "ALBUM ARTIST=%albumartist%" -T "COMMENT=EAC Secure Mode, Test & Copy, AccurateRip, FLAC -8" %source%


TOC of the extracted CD

Track | Start | Length | Start sector | End sector
––––––––––––––––––––––––––––-
1 | 0:00.00 | 2:44.35 | 0 | 12334
2 | 2:44.35 | 5:35.59 | 12335 | 37518
3 | 8:20.19 | 9:24.54 | 37519 | 79872
4 | 17:44.73 | 4:07.12 | 79873 | 98409
5 | 21:52.10 | 2:48.37 | 98410 | 111046
6 | 24:40.47 | 6:15.62 | 111047 | 139233
7 | 30:56.34 | 4:08.28 | 139234 | 157861
8 | 35:04.62 | 7:54.07 | 157862 | 193418
9 | 42:58.69 | 3:47.44 | 193419 | 210487
10 | 46:46.38 | 3:57.64 | 210488 | 228326
11 | 50:44.27 | 3:45.21 | 228327 | 245222
12 | 54:29.48 | 5:23.27 | 245223 | 269474
13 | 59:53.00 | 2:44.10 | 269475 | 281784
14 | 62:37.10 | 2:27.26 | 281785 | 292835
15 | 65:04.36 | 4:10.13 | 292836 | 311598
16 | 69:14.49 | 3:51.12 | 311599 | 328935
17 | 73:05.61 | 3:20.05 | 328936 | 343940


Track 1

Filename D:\_EAC\Count Basie - Complete Live At The Crescendo 1958 (2016) [FLAC]\CD4\01 - Little Pony #1.wav

Pre-gap length 0:00:02.00

Peak level 91.2 %
Extraction speed 2.5 X
Track quality 100.0 %
Test CRC 53748F32
Copy CRC 53748F32
Accurately ripped (confidence 1) [0A4CCD4D] (AR v2)
Copy OK

Track 2

Filename D:\_EAC\Count Basie - Complete Live At The Crescendo 1958 (2016) [FLAC]\CD4\02 - Ol' Man River #1.wav

Peak level 91.2 %
Extraction speed 3.3 X
Track quality 100.0 %
Test CRC DDF390C9
Copy CRC DDF390C9
Accurately ripped (confidence 1) [F60D1F37] (AR v2)
Copy OK

Track 3

Filename D:\_EAC\Count Basie - Complete Live At The Crescendo 1958 (2016) [FLAC]\CD4\03 - The Midgets.wav

Peak level 91.2 %
Extraction speed 3.6 X
Track quality 99.9 %
Test CRC C8E743FF
Copy CRC C8E743FF
Accurately ripped (confidence 1) [C2BADAB2] (AR v2)
Copy OK

Track 4

Filename D:\_EAC\Count Basie - Complete Live At The Crescendo 1958 (2016) [FLAC]\CD4\04 - Whirly-Bird #3.wav

Peak level 91.2 %
Extraction speed 3.9 X
Track quality 100.0 %
Test CRC 92E5166D
Copy CRC 92E5166D
Accurately ripped (confidence 1) [4439B269] (AR v2)
Copy OK

Track 5

Filename D:\_EAC\Count Basie - Complete Live At The Crescendo 1958 (2016) [FLAC]\CD4\05 - Basie-Boogie.wav

Peak level 91.2 %
Extraction speed 3.9 X
Track quality 100.0 %
Test CRC 1C776B01
Copy CRC 1C776B01
Accurately ripped (confidence 1) [3AD14ACA] (AR v2)
Copy OK

Track 6

Filename D:\_EAC\Count Basie - Complete Live At The Crescendo 1958 (2016) [FLAC]\CD4\06 - The Deacon.wav

Peak level 91.2 %
Extraction speed 3.9 X
Track quality 99.9 %
Test CRC 080C1485
Copy CRC 080C1485
Accurately ripped (confidence 1) [92AF1AF2] (AR v2)
Copy OK

Track 7

Filename D:\_EAC\Count Basie - Complete Live At The Crescendo 1958 (2016) [FLAC]\CD4\07 - Cute #2.wav

Peak level 91.2 %
Extraction speed 4.5 X
Track quality 100.0 %
Test CRC 84EBC438
Copy CRC 84EBC438
Accurately ripped (confidence 1) [C5975119] (AR v2)
Copy OK

Track 8

Filename D:\_EAC\Count Basie - Complete Live At The Crescendo 1958 (2016) [FLAC]\CD4\08 - Ol' Man River #2.wav

Peak level 91.2 %
Extraction speed 4.6 X
Track quality 99.9 %
Test CRC DD2CE018
Copy CRC DD2CE018
Accurately ripped (confidence 1) [2BF4C9E1] (AR v2)
Copy OK

Track 9

Filename D:\_EAC\Count Basie - Complete Live At The Crescendo 1958 (2016) [FLAC]\CD4\09 - The Kid From Red Bank #2.wav

Peak level 91.2 %
Extraction speed 5.1 X
Track quality 100.0 %
Test CRC 483C0D2A
Copy CRC 483C0D2A
Accurately ripped (confidence 1) [DAB8A23E] (AR v2)
Copy OK

Track 10

Filename D:\_EAC\Count Basie - Complete Live At The Crescendo 1958 (2016) [FLAC]\CD4\10 - Spring Is Here #2.wav

Peak level 91.2 %
Extraction speed 5.2 X
Track quality 100.0 %
Test CRC 5F7E37BD
Copy CRC 5F7E37BD
Accurately ripped (confidence 1) [A201895E] (AR v2)
Copy OK

Track 11

Filename D:\_EAC\Count Basie - Complete Live At The Crescendo 1958 (2016) [FLAC]\CD4\11 - Why Not_.wav

Peak level 91.2 %
Extraction speed 5.3 X
Track quality 100.0 %
Test CRC 750C6EAB
Copy CRC 750C6EAB
Accurately ripped (confidence 1) [31F190AD] (AR v2)
Copy OK

Track 12

Filename D:\_EAC\Count Basie - Complete Live At The Crescendo 1958 (2016) [FLAC]\CD4\12 - Corner Pocket #2.wav

Peak level 91.2 %
Extraction speed 4.7 X
Track quality 99.9 %
Test CRC 82211D7B
Copy CRC 82211D7B
Accurately ripped (confidence 1) [E18D06AD] (AR v2)
Copy OK

Track 13

Filename D:\_EAC\Count Basie - Complete Live At The Crescendo 1958 (2016) [FLAC]\CD4\13 - Little Pony #2.wav

Peak level 91.2 %
Extraction speed 5.3 X
Track quality 100.0 %
Test CRC B8104633
Copy CRC B8104633
Accurately ripped (confidence 1) [1CF9D293] (AR v2)
Copy OK

Track 14

Filename D:\_EAC\Count Basie - Complete Live At The Crescendo 1958 (2016) [FLAC]\CD4\14 - Blee Blop Blues.wav

Peak level 91.2 %
Extraction speed 5.2 X
Track quality 100.0 %
Test CRC 3DDCA329
Copy CRC 3DDCA329
Accurately ripped (confidence 1) [8D78C677] (AR v2)
Copy OK

Track 15

Filename D:\_EAC\Count Basie - Complete Live At The Crescendo 1958 (2016) [FLAC]\CD4\15 - Bubbles.wav

Peak level 91.2 %
Extraction speed 5.8 X
Track quality 100.0 %
Test CRC E04353D0
Copy CRC E04353D0
Accurately ripped (confidence 1) [5B5DE06B] (AR v2)
Copy OK

Track 16

Filename D:\_EAC\Count Basie - Complete Live At The Crescendo 1958 (2016) [FLAC]\CD4\16 - How High The Moon 32.wav

Peak level 91.2 %
Extraction speed 5.8 X
Track quality 100.0 %
Test CRC 9540DD7B
Copy CRC 9540DD7B
Accurately ripped (confidence 1) [90773ED7] (AR v2)
Copy OK

Track 17

Filename D:\_EAC\Count Basie - Complete Live At The Crescendo 1958 (2016) [FLAC]\CD4\17 - You're Not The Kind.wav

Peak level 91.2 %
Extraction speed 5.8 X
Track quality 100.0 %
Test CRC D943735E
Copy CRC D943735E
Cannot be verified as accurate (confidence 1) [E288AA03], AccurateRip returned [979B77E8] (AR v2)
Copy OK


16 track(s) accurately ripped
1 track(s) could not be verified as accurate

Some tracks could not be verified as accurate

No errors occurred

End of status report

==== Log checksum 70881F569FC212D9D5BF1DAB77659D2E496EEECB465E187A180F0AEB8B882AC5 ====

Exact Audio Copy V1.1 from 23. June 2015

EAC extraction logfile from 29. April 2016, 14:25

Count Basie & His Atomic Band / Complete Live At The Crescendo 1958 (CD5)

Used drive : TSSTcorpCDDVDW SE-208DB Adapter: 1 ID: 0

Read mode : Secure
Utilize accurate stream : Yes
Defeat audio cache : Yes
Make use of C2 pointers : No

Read offset correction : 6
Overread into Lead-In and Lead-Out : No
Fill up missing offset samples with silence : Yes
Delete leading and trailing silent blocks : No
Null samples used in CRC calculations : Yes
Used interface : Native Win32 interface for Win NT & 2000
Gap handling : Appended to previous track

Used output format : User Defined Encoder
Selected bitrate : 1024 kBit/s
Quality : High
Add ID3 tag : No
Command line compressor : C:\Program Files (x86)\FLAC Frontend\tools\flac.exe
Additional command line options : -8 -V -T "ARTIST=%artist%" -T "TITLE=%title%" -T "ALBUM=%albumtitle%" -T "DATE=%year%" -T "TRACKNUMBER=%tracknr%" -T "TOTALTRACKS=%numtracks%" -T "GENRE=%genre%" -T "ALBUMARTIST=%albumartist%" -T "ALBUM ARTIST=%albumartist%" -T "COMMENT=EAC Secure Mode, Test & Copy, AccurateRip, FLAC -8" %source%


TOC of the extracted CD

Track | Start | Length | Start sector | End sector
––––––––––––––––––––––––––––-
1 | 0:00.00 | 6:44.08 | 0 | 30307
2 | 6:44.08 | 4:55.59 | 30308 | 52491
3 | 11:39.67 | 4:52.09 | 52492 | 74400
4 | 16:32.01 | 3:12.00 | 74401 | 88800
5 | 19:44.01 | 6:34.06 | 88801 | 118356
6 | 26:18.07 | 4:54.11 | 118357 | 140417
7 | 31:12.18 | 2:52.28 | 140418 | 153345
8 | 34:04.46 | 2:16.37 | 153346 | 163582
9 | 36:21.08 | 6:03.23 | 163583 | 190830
10 | 42:24.31 | 3:28.15 | 190831 | 206445
11 | 45:52.46 | 3:41.26 | 206446 | 223046
12 | 49:33.72 | 1:47.65 | 223047 | 231136
13 | 51:21.62 | 2:55.56 | 231137 | 244317
14 | 54:17.43 | 2:20.41 | 244318 | 254858
15 | 56:38.09 | 3:24.72 | 254859 | 270230


Track 1

Filename D:\_EAC\Count Basie - Complete Live At The Crescendo 1958 (2016) [FLAC]\CD5\01 - Teddy The Toad #2.wav

Pre-gap length 0:00:02.00

Peak level 91.2 %
Extraction speed 3.1 X
Track quality 100.0 %
Test CRC DC3653DC
Copy CRC DC3653DC
Accurately ripped (confidence 1) [BE630853] (AR v2)
Copy OK

Track 2

Filename D:\_EAC\Count Basie - Complete Live At The Crescendo 1958 (2016) [FLAC]\CD5\02 - Jumpin' At The Woodside #2.wav

Peak level 91.2 %
Extraction speed 3.0 X
Track quality 99.9 %
Test CRC 3B473435
Copy CRC 3B473435
Accurately ripped (confidence 1) [83A49D3A] (AR v2)
Copy OK

Track 3

Filename D:\_EAC\Count Basie - Complete Live At The Crescendo 1958 (2016) [FLAC]\CD5\03 - Blues Backstage.wav

Peak level 91.2 %
Extraction speed 3.8 X
Track quality 100.0 %
Test CRC D0D985DD
Copy CRC D0D985DD
Accurately ripped (confidence 1) [BD1B7A71] (AR v2)
Copy OK

Track 4

Filename D:\_EAC\Count Basie - Complete Live At The Crescendo 1958 (2016) [FLAC]\CD5\04 - Peace Pipe.wav

Peak level 91.2 %
Extraction speed 3.8 X
Track quality 100.0 %
Test CRC 02E8DE5C
Copy CRC 02E8DE5C
Accurately ripped (confidence 1) [14C31552] (AR v2)
Copy OK

Track 5

Filename D:\_EAC\Count Basie - Complete Live At The Crescendo 1958 (2016) [FLAC]\CD5\05 - Plymouth Rock #2.wav

Peak level 91.2 %
Extraction speed 3.8 X
Track quality 99.9 %
Test CRC C32331C8
Copy CRC C32331C8
Accurately ripped (confidence 1) [C832ABA1] (AR v2)
Copy OK

Track 6

Filename D:\_EAC\Count Basie - Complete Live At The Crescendo 1958 (2016) [FLAC]\CD5\06 - Shiny Stockings #2.wav

Peak level 91.2 %
Extraction speed 3.8 X
Track quality 99.9 %
Test CRC 8DC6CDDC
Copy CRC 8DC6CDDC
Accurately ripped (confidence 1) [2357CCE5] (AR v2)
Copy OK

Track 7

Filename D:\_EAC\Count Basie - Complete Live At The Crescendo 1958 (2016) [FLAC]\CD5\07 - H.R.H [Her Royal Highness] #2.wav

Peak level 91.2 %
Extraction speed 4.3 X
Track quality 100.0 %
Test CRC CF486BCB
Copy CRC CF486BCB
Accurately ripped (confidence 1) [A1D3B988] (AR v2)
Copy OK

Track 8

Filename D:\_EAC\Count Basie - Complete Live At The Crescendo 1958 (2016) [FLAC]\CD5\08 - Bag-A-Bones #2.wav

Peak level 91.2 %
Extraction speed 4.2 X
Track quality 100.0 %
Test CRC 5991ADC7
Copy CRC 5991ADC7
Accurately ripped (confidence 1) [FCE10353] (AR v2)
Copy OK

Track 9

Filename D:\_EAC\Count Basie - Complete Live At The Crescendo 1958 (2016) [FLAC]\CD5\09 - In A Mellow Tone #2.wav

Peak level 91.2 %
Extraction speed 5.1 X
Track quality 100.0 %
Test CRC 498D7EA7
Copy CRC 498D7EA7
Accurately ripped (confidence 1) [F1C339F4] (AR v2)
Copy OK

Track 10

Filename D:\_EAC\Count Basie - Complete Live At The Crescendo 1958 (2016) [FLAC]\CD5\10 - Whirly-Bird.wav

Peak level 91.2 %
Extraction speed 4.9 X
Track quality 100.0 %
Test CRC 08A744B3
Copy CRC 08A744B3
Accurately ripped (confidence 1) [F7B07566] (AR v2)
Copy OK

Track 11

Filename D:\_EAC\Count Basie - Complete Live At The Crescendo 1958 (2016) [FLAC]\CD5\11 - Cute.wav

Peak level 91.2 %
Extraction speed 5.0 X
Track quality 100.0 %
Test CRC 7653D8F1
Copy CRC 7653D8F1
Accurately ripped (confidence 1) [17288FA1] (AR v2)
Copy OK

Track 12

Filename D:\_EAC\Count Basie - Complete Live At The Crescendo 1958 (2016) [FLAC]\CD5\12 - Thou Swell.wav

Peak level 91.2 %
Extraction speed 3.0 X
Track quality 99.9 %
Test CRC 24A5744E
Copy CRC 24A5744E
Accurately ripped (confidence 1) [F35FDE49] (AR v2)
Copy OK

Track 13

Filename D:\_EAC\Count Basie - Complete Live At The Crescendo 1958 (2016) [FLAC]\CD5\13 - Five O'Clock In The Morning.wav

Peak level 91.2 %
Extraction speed 5.0 X
Track quality 100.0 %
Test CRC C2382136
Copy CRC C2382136
Cannot be verified as accurate (confidence 1) [5074D312], AccurateRip returned [11BF51B3] (AR v2)
Copy OK

Track 14

Filename D:\_EAC\Count Basie - Complete Live At The Crescendo 1958 (2016) [FLAC]\CD5\14 - Blee Blop Blues.wav

Peak level 91.2 %
Extraction speed 4.9 X
Track quality 100.0 %
Test CRC 3BEE2FA0
Copy CRC 3BEE2FA0
Cannot be verified as accurate (confidence 1) [00A327CF], AccurateRip returned [75435905] (AR v2)
Copy OK

Track 15

Filename D:\_EAC\Count Basie - Complete Live At The Crescendo 1958 (2016) [FLAC]\CD5\15 - One O'Clock Jump.wav

Peak level 91.2 %
Extraction speed 5.4 X
Track quality 100.0 %
Test CRC DD6E7821
Copy CRC DD6E7821
Cannot be verified as accurate (confidence 1) [EFC5B28E], AccurateRip returned [2823DA17] (AR v2)
Copy OK


12 track(s) accurately ripped
3 track(s) could not be verified as accurate

Some tracks could not be verified as accurate

No errors occurred

End of status report

==== Log checksum 204C8D9E06F321FCC6CFE16EFC907F71F0D41F7553EDDF3FA7EF33B7D09492F1 ====


Count Basie & His Atomic Band - Complete Live At The Crescendo 1958 (2016) {5CD Box Set Phono Records 870245}

Count Basie & His Atomic Band - Complete Live At The Crescendo 1958 (2016) {5CD Box Set Phono Records 870245}

Count Basie & His Atomic Band - Complete Live At The Crescendo 1958 (2016) {5CD Box Set Phono Records 870245}


thanks to next_door for the subject…