Subcategories

Cowboys & Aliens – Language Of Superstars (2005)

Posted By: robixn
Cowboys & Aliens – Language Of Superstars (2005)

Cowboys & Aliens – Language Of Superstars (2005)
EAC Rip | FLAC, CUE+LOG | 340 MB | Scans (300dpi) | Wupload/ Filesonic
Stoner/ Hard Rock | Apache Productions | AP01002

Latest full-length, the band is currently working on new material.

It’s time for the stoner revolution! De Belgische helden van C&A laten eindelijk hun nieuw plaatwerk los op de mensheid. En wat voor een plaatwerk! De broeierige mix van Kyuss, Queens Of The Stone Age, The Cult en 70’s hardrock bewijst eindelijk dat deze Vlamingen internationaal mee kunnen. Ze besloten te tekenen bij Apache Productions dat ook concerten regelt, in staat voor management en muziekopleidingen voor rockartiesten verzorgd. Deze deal zal hen geen windeieren leggen, want het is in de scène bekend dat AP wel een voetje tussen de deur krijgt en zodoende speelt C&A weer op de Graspop Metal Meeting en delen ze dit jaar de bühne met Saxon, Europe en The Scorpions op het amusante Schwung-festival.

Maar genoeg over de music business en laten we ons concentreren op ‘Language Of Superstars’. In vergelijking met precedent ‘A Trip To The Stonehenge Colony’ klinken onze vrienden strakker, meer volwassen en ook een stuk toegankelijker. Woestijnbard Henk Vanhee is gegroeid in zijn rol, katoenplukkers Pollentier en Iterbike weten elkaar blindelings te vullen en de eeneiige tweeling Mario/Kris weten ondertussen wel hoe ze een groove moeten laten ontstaan. De songs kennen alleen een duidelijke structuur en stralen iets ouderwets ‘cool’ uit en met wat radiozendtijd worden ‘Moving Target’ en ‘Heart, Body & Soul’ culthits.

Productie, mastering, artwork en attitude mogen er ook wezen zodat ik maar één klein kritiekpuntje kan formuleren. Ik zou graag horen dat de heren af en toe wat weer zouden trippen en de geijkte songstructuur af en toe zouden beledigen met een dikke muzikale Fuck You want ‘Language Of Superstars’ is een uitstekend rockplaat met potentie, maar is te toegankelijk om een echte ruimtereis te veroorzaken bij de connaisseur.

-metalfan.nl
Tracklist:

1. Moving Target (3:12)
2. Language Of Superstars (3:29)
3. Another Fine Display (4:08)
4. Heart, Body & Soul (4:36)
5. Kinda Breathtaking (4:37)
6. Waiting At The Gates (6:38)
7. Pissing Me Off (4:29)
8. Remember My Name (4:10)
9. Napalm Beach (3:49)
10. Better Believe (4:02)
11. Time Caesar (6:03)

Exact Audio Copy V1.0 beta 2 from 29. April 2011

EAC extraction logfile from 18. June 2011, 17:02

Cowboys & Aliens / Language Of Superstars

Used drive : _NEC DVD+-RW ND-3650A Adapter: 4 ID: 0

Read mode : Secure
Utilize accurate stream : Yes
Defeat audio cache : Yes
Make use of C2 pointers : No

Read offset correction : 48
Overread into Lead-In and Lead-Out : No
Fill up missing offset samples with silence : Yes
Delete leading and trailing silent blocks : No
Null samples used in CRC calculations : Yes
Used interface : Native Win32 interface for Win NT & 2000
Gap handling : Appended to previous track

Used output format : User Defined Encoder
Selected bitrate : 1024 kBit/s
Quality : High
Add ID3 tag : No
Command line compressor : C:\Program Files (x86)\Exact Audio Copy\Flac\flac.exe
Additional command line options : -8 -V -T "ARTIST=%artist%" -T "TITLE=%title%" -T "ALBUM=%albumtitle%" -T "DATE=%year%" -T "TRACKNUMBER=%tracknr%" -T "GENRE=%genre%" -T "PERFORMER=%albuminterpret%" -T "COMPOSER=%composer%" %haslyrics%–tag-from-file=LYRICS


TOC of the extracted CD

Track | Start | Length | Start sector | End sector
––––––––––––––––––––––––––––-
1 | 0:00.00 | 3:12.03 | 0 | 14402
2 | 3:12.03 | 3:29.04 | 14403 | 30081
3 | 6:41.07 | 4:08.51 | 30082 | 48732
4 | 10:49.58 | 4:36.64 | 48733 | 69496
5 | 15:26.47 | 4:37.70 | 69497 | 90341
6 | 20:04.42 | 6:38.19 | 90342 | 120210
7 | 26:42.61 | 4:29.19 | 120211 | 140404
8 | 31:12.05 | 4:10.54 | 140405 | 159208
9 | 35:22.59 | 3:49.22 | 159209 | 176405
10 | 39:12.06 | 4:02.44 | 176406 | 194599
11 | 43:14.50 | 6:03.28 | 194600 | 221852


Track 1

Filename C:\Users\Robin\Music\Lossless Robin\Cowboys & Aliens - Language Of Superstars (2005) [FLAC + Scans]\01 Moving Target.wav

Pre-gap length 0:00:02.00

Peak level 100.0 %
Extraction speed 4.1 X
Track quality 100.0 %
Test CRC A54FE8FD
Copy CRC A54FE8FD
Accurately ripped (confidence 1) [1BB4E80C] (AR v1)
Copy OK

Track 2

Filename C:\Users\Robin\Music\Lossless Robin\Cowboys & Aliens - Language Of Superstars (2005) [FLAC + Scans]\02 Language Of Superstars.wav

Pre-gap length 0:00:00.56

Peak level 100.0 %
Extraction speed 4.6 X
Track quality 100.0 %
Test CRC AFB23F0D
Copy CRC AFB23F0D
Accurately ripped (confidence 1) [0D01B09A] (AR v1)
Copy OK

Track 3

Filename C:\Users\Robin\Music\Lossless Robin\Cowboys & Aliens - Language Of Superstars (2005) [FLAC + Scans]\03 Another Fine Display.wav

Pre-gap length 0:00:02.00

Peak level 100.0 %
Extraction speed 4.2 X
Track quality 99.9 %
Test CRC 0CF2A932
Copy CRC 0CF2A932
Accurately ripped (confidence 1) [41F7F220] (AR v1)
Copy OK

Track 4

Filename C:\Users\Robin\Music\Lossless Robin\Cowboys & Aliens - Language Of Superstars (2005) [FLAC + Scans]\04 Heart, Body & Soul.wav

Pre-gap length 0:00:02.00

Peak level 100.0 %
Extraction speed 4.7 X
Track quality 99.9 %
Test CRC 983466D2
Copy CRC 983466D2
Accurately ripped (confidence 1) [D921D7ED] (AR v1)
Copy OK

Track 5

Filename C:\Users\Robin\Music\Lossless Robin\Cowboys & Aliens - Language Of Superstars (2005) [FLAC + Scans]\05 Kinda Breathtaking.wav

Peak level 100.0 %
Extraction speed 6.0 X
Track quality 100.0 %
Test CRC D56AB215
Copy CRC D56AB215
Accurately ripped (confidence 1) [5AA4D295] (AR v1)
Copy OK

Track 6

Filename C:\Users\Robin\Music\Lossless Robin\Cowboys & Aliens - Language Of Superstars (2005) [FLAC + Scans]\06 Waiting At The Gates.wav

Pre-gap length 0:00:02.00

Peak level 100.0 %
Extraction speed 6.7 X
Track quality 100.0 %
Test CRC 3DE6D7CA
Copy CRC 3DE6D7CA
Accurately ripped (confidence 1) [1E8D870C] (AR v1)
Copy OK

Track 7

Filename C:\Users\Robin\Music\Lossless Robin\Cowboys & Aliens - Language Of Superstars (2005) [FLAC + Scans]\07 Pissing Me Off.wav

Peak level 100.0 %
Extraction speed 5.7 X
Track quality 99.9 %
Test CRC 80988A24
Copy CRC 80988A24
Accurately ripped (confidence 1) [9B2FF93F] (AR v1)
Copy OK

Track 8

Filename C:\Users\Robin\Music\Lossless Robin\Cowboys & Aliens - Language Of Superstars (2005) [FLAC + Scans]\08 Remember My Name.wav

Pre-gap length 0:00:02.00

Peak level 100.0 %
Extraction speed 7.1 X
Track quality 100.0 %
Test CRC CE8CF035
Copy CRC CE8CF035
Accurately ripped (confidence 1) [5128B3FA] (AR v1)
Copy OK

Track 9

Filename C:\Users\Robin\Music\Lossless Robin\Cowboys & Aliens - Language Of Superstars (2005) [FLAC + Scans]\09 Napalm Beach.wav

Pre-gap length 0:00:02.00

Peak level 100.0 %
Extraction speed 7.2 X
Track quality 100.0 %
Test CRC 3A8BDE69
Copy CRC 3A8BDE69
Accurately ripped (confidence 1) [38F3CC5E] (AR v1)
Copy OK

Track 10

Filename C:\Users\Robin\Music\Lossless Robin\Cowboys & Aliens - Language Of Superstars (2005) [FLAC + Scans]\10 Better Believe.wav

Peak level 100.0 %
Extraction speed 7.5 X
Track quality 100.0 %
Test CRC 662433D0
Copy CRC 662433D0
Accurately ripped (confidence 1) [09FC4543] (AR v1)
Copy OK

Track 11

Filename C:\Users\Robin\Music\Lossless Robin\Cowboys & Aliens - Language Of Superstars (2005) [FLAC + Scans]\11 Time Caesar.wav

Peak level 100.0 %
Extraction speed 8.2 X
Track quality 100.0 %
Test CRC 1A568E07
Copy CRC 1A568E07
Accurately ripped (confidence 1) [67C80B5B] (AR v1)
Copy OK


All tracks accurately ripped

No errors occurred

End of status report

==== Log checksum C63E63ADFB18C6D1E4FACDFCD53256FCD640748502C013FB614C5E4446D248DB ====


Line-up:

Kris V - Bass
Peter G - Drums
John P - Guitar
Henk V - Vocals

Produced by Peter Iterbeke
Recorded & Mixed by Peter Iterbeke @Studio Max, Brugge between August and December 2004
Mastered by Attie Bauw @Bauwhaus studio, Amsterdam

Wupload Download
Part 1
Part 2
Part 3
Scans

Filesonic Download
Part 1
Part 2
Part 3
Scans