Tags
Language
Tags

Crime & the City Solution - 7 Albums (1986-2013)

Posted By: Domestos
Crime & the City Solution - 7 Albums (1986-2013)

Crime & the City Solution - 7 Albums (1986-2013)
EAC Rip | FLAC (tracks+.cue, log) ~ 2,55 Gb | 07:21:50 | Covers
Post-Punk | Country: Australia | Label: Mute

Crime & the City Solution are an Australian rock music band, which formed in late 1977 by singer-songwriter and mainstay, Simon Bonney. They disbanded in 1979 with bootleg recordings and demos that are extremely rare. In late 1983, Bonney traveled to London. Two years later he formed another version of the group there with members of the recently disbanded The Birthday Party; later they transferred to Berlin, where they issued four albums – Room of Lights (1986), Shine (1988), The Bride Ship (1989) and Paradise Discotheque (1990) – before disbanding again in 1991. In 2012 Bonney reformed the band in Detroit with two veterans of the Berlin era and a handful of new members. Critic David Sheridan described the band's music as characterized by slow tempos, dark moods and Bonney's forlorn vocals, all of which can range from "endurance testing" at worst to "hauntingly beautiful" at best.



Crime & the City Solution - 7 Albums (1986-2013)

Crime & the City Solution - Room of Lights (1986)
EAC Rip | FLAC (tracks+.cue, log) ~ 380.50 Mb | 01:03:39 | Cover
Post-Punk | Country: Australia | Label: Mute - STUMM 36 (UK Issue)

Track List:
1. "Right Man, Wrong Man" (4:20)
2. "No Money, No Honey" (3:50)
3. "Hey Sinkiller" (3:09)
4. "Six Bells Chime" (5:40)
5. "Adventure" (3:26)
6. "Untouchable" (5:16)
7. "The Brother Song" (3:35)
8. "Her Room of Lights" (3:51)
9. "Rose Blue" (4:53)
10. "The Coal Train" (5:53)
11. "Five Stone Walls" (4:23)
12. "The Wailing Wall" (5:33)
13. "Trouble Come This Morning" (4:34)
14. "The Dangling Man" (4:09)

Crime & the City Solution - Room of Lights (1988)
EAC Rip | FLAC (tracks+.cue, log) ~ 419.65 Mb | 01:13:07 | Cover
Post-Punk | Country: Australia | Label: Mute - 32XB-257 (Japan Issue w/ Just South of Heaven EP)

Track List:
1. "Right Man, Wrong Man" (4:20)
2. "No Money, No Honey" (3:51)
3. "Hey Sinkiller" (4:09)
4. "Six Bells Chime" (5:41)
5. "Adventure" (3:24)
6. "Untouchable" (5:16)
7. "The Brother Song" (3:35)
8. "Her Room of Lights" (3:51)
9. "Rose Blue" (4:51)
10. "The Coal Train" (5:58)
11. "Stolen & Stealing" (3:17)
12. "Five Stone Walls" (4:21)
13. "Trouble Come This Morning" (4:33)
14. "The Wailing Wall" (5:33)
15. "It Takes Two to Burn" (4:57)
16. "The Kentucky Click" (5:30)



Exact Audio Copy V1.0 beta 6 from 9. April 2015

EAC extraction logfile from 11. September 2018, 22:41

Crime & the City Solution / Room of Lights

Used drive : ATAPI iHAS124 B Adapter: 1 ID: 0

Read mode : Secure
Utilize accurate stream : Yes
Defeat audio cache : Yes
Make use of C2 pointers : No

Read offset correction : 6
Overread into Lead-In and Lead-Out : No
Fill up missing offset samples with silence : Yes
Delete leading and trailing silent blocks : No
Null samples used in CRC calculations : Yes
Used interface : Native Win32 interface for Win NT & 2000
Gap handling : Appended to previous track

Used output format : User Defined Encoder
Selected bitrate : 1024 kBit/s
Quality : High
Add ID3 tag : No
Command line compressor : C:\Program Files (x86)\Exact Audio Copy\FLAC\FLAC.EXE
Additional command line options : -8 -e -p -V -T "ARTIST=%artist%" -T "TITLE=%title%" -T "ALBUM=%albumtitle%" -T "DATE=%year%" -T "TRACKNUMBER=%tracknr%" -T "GENRE=%genre%" -T "PERFORMER=%albuminterpret%" -T "COMPOSER=%composer%" %haslyrics%–tag-from-file=LYRICS="%lyricsfile%"%haslyrics% -T "ALBUMARTIST=%albumartist%" -T "DISCNUMBER=%cdnumber%" -T "TOTALDISCS=%totalcds%" -T "TOTALTRACKS=%numtracks%" -T "COMMENT=%comment%" %source% -o %dest%


TOC of the extracted CD

Track | Start | Length | Start sector | End sector
––––––––––––––––––––––––––––-
1 | 0:00.00 | 4:20.17 | 0 | 19516
2 | 4:20.17 | 3:50.18 | 19517 | 36784
3 | 8:10.35 | 4:08.60 | 36785 | 55444
4 | 12:19.20 | 5:40.02 | 55445 | 80946
5 | 17:59.22 | 3:25.53 | 80947 | 96374
6 | 21:25.00 | 5:15.50 | 96375 | 120049
7 | 26:40.50 | 3:35.32 | 120050 | 136206
8 | 30:16.07 | 3:51.18 | 136207 | 153549
9 | 34:07.25 | 4:53.10 | 153550 | 175534
10 | 39:00.35 | 6:00.35 | 175535 | 202569
11 | 45:00.70 | 4:22.62 | 202570 | 222281
12 | 49:23.57 | 5:33.23 | 222282 | 247279
13 | 54:57.05 | 4:33.47 | 247280 | 267801
14 | 59:30.52 | 4:08.48 | 267802 | 286449


Track 1

Filename G:\musik\_rips\Crime & the City Solution - (1986) Room of Lights [FLAC]\01 - Right Man, Wrong Man.wav

Pre-gap length 0:00:02.00

Peak level 98.5 %
Extraction speed 3.3 X
Track quality 100.0 %
Test CRC FF7B0A2E
Copy CRC FF7B0A2E
Accurately ripped (confidence 5) [D11817B1] (AR v2)
Copy OK

Track 2

Filename G:\musik\_rips\Crime & the City Solution - (1986) Room of Lights [FLAC]\02 - No Money, No Honey.wav

Pre-gap length 0:00:00.01

Peak level 94.0 %
Extraction speed 3.7 X
Track quality 100.0 %
Test CRC EE2CF76C
Copy CRC EE2CF76C
Accurately ripped (confidence 5) [49A4D04D] (AR v2)
Copy OK

Track 3

Filename G:\musik\_rips\Crime & the City Solution - (1986) Room of Lights [FLAC]\03 - Hey Sinkiller.wav

Pre-gap length 0:00:00.02

Peak level 98.8 %
Extraction speed 4.0 X
Track quality 100.0 %
Test CRC DA96A094
Copy CRC DA96A094
Accurately ripped (confidence 5) [F6EF374A] (AR v2)
Copy OK

Track 4

Filename G:\musik\_rips\Crime & the City Solution - (1986) Room of Lights [FLAC]\04 - Six Bells Chime.wav

Pre-gap length 0:00:00.02

Peak level 91.3 %
Extraction speed 4.5 X
Track quality 100.0 %
Test CRC 90069095
Copy CRC 90069095
Accurately ripped (confidence 5) [883D922B] (AR v2)
Copy OK

Track 5

Filename G:\musik\_rips\Crime & the City Solution - (1986) Room of Lights [FLAC]\05 - Adventure.wav

Pre-gap length 0:00:01.72

Peak level 95.3 %
Extraction speed 4.6 X
Track quality 100.0 %
Test CRC 350AA2C1
Copy CRC 350AA2C1
Accurately ripped (confidence 5) [C2373958] (AR v2)
Copy OK

Track 6

Filename G:\musik\_rips\Crime & the City Solution - (1986) Room of Lights [FLAC]\06 - Untouchable.wav

Pre-gap length 0:00:00.02

Peak level 100.0 %
Extraction speed 5.0 X
Track quality 100.0 %
Test CRC BE4EEE61
Copy CRC BE4EEE61
Accurately ripped (confidence 5) [243CE6FF] (AR v2)
Copy OK

Track 7

Filename G:\musik\_rips\Crime & the City Solution - (1986) Room of Lights [FLAC]\07 - The Brother Song.wav

Pre-gap length 0:00:00.02

Peak level 83.6 %
Extraction speed 4.0 X
Track quality 99.9 %
Test CRC A1544FFC
Copy CRC A1544FFC
Accurately ripped (confidence 5) [5ACC0AF1] (AR v2)
Copy OK

Track 8

Filename G:\musik\_rips\Crime & the City Solution - (1986) Room of Lights [FLAC]\08 - Her Room of Lights (For Lisa).wav

Pre-gap length 0:00:00.02

Peak level 100.0 %
Extraction speed 5.3 X
Track quality 100.0 %
Test CRC CEDE11E4
Copy CRC CEDE11E4
Accurately ripped (confidence 5) [D9D01ECA] (AR v2)
Copy OK

Track 9

Filename G:\musik\_rips\Crime & the City Solution - (1986) Room of Lights [FLAC]\09 - Rose Blue.wav

Pre-gap length 0:00:00.02

Peak level 100.0 %
Extraction speed 4.9 X
Track quality 99.9 %
Test CRC B101D16D
Copy CRC B101D16D
Accurately ripped (confidence 5) [4633432B] (AR v2)
Copy OK

Track 10

Filename G:\musik\_rips\Crime & the City Solution - (1986) Room of Lights [FLAC]\10 - The Coal Train.wav

Pre-gap length 0:00:02.70

Peak level 77.9 %
Extraction speed 6.0 X
Track quality 100.0 %
Test CRC C11FC053
Copy CRC C11FC053
Accurately ripped (confidence 5) [34FB5219] (AR v2)
Copy OK

Track 11

Filename G:\musik\_rips\Crime & the City Solution - (1986) Room of Lights [FLAC]\11 - Five Stone Walls.wav

Pre-gap length 0:00:02.57

Peak level 89.2 %
Extraction speed 6.1 X
Track quality 100.0 %
Test CRC 69CA2DF0
Copy CRC 69CA2DF0
Accurately ripped (confidence 5) [2DD2A4AF] (AR v2)
Copy OK

Track 12

Filename G:\musik\_rips\Crime & the City Solution - (1986) Room of Lights [FLAC]\12 - The Wailing Wall.wav

Pre-gap length 0:00:02.34

Peak level 87.7 %
Extraction speed 5.5 X
Track quality 99.9 %
Test CRC 8BB30EBB
Copy CRC 8BB30EBB
Accurately ripped (confidence 5) [943A8BEE] (AR v2)
Copy OK

Track 13

Filename G:\musik\_rips\Crime & the City Solution - (1986) Room of Lights [FLAC]\13 - Trouble Come This Morning.wav

Pre-gap length 0:00:02.41

Peak level 82.9 %
Extraction speed 6.6 X
Track quality 100.0 %
Test CRC 96D77766
Copy CRC 96D77766
Accurately ripped (confidence 5) [99F599C4] (AR v2)
Copy OK

Track 14

Filename G:\musik\_rips\Crime & the City Solution - (1986) Room of Lights [FLAC]\14 - The Dangling Man.wav

Pre-gap length 0:00:01.74

Peak level 67.0 %
Extraction speed 5.5 X
Track quality 99.9 %
Test CRC FB812F55
Copy CRC FB812F55
Accurately ripped (confidence 5) [92BE7FDF] (AR v2)
Copy OK


All tracks accurately ripped

No errors occurred

End of status report

–– CUETools DB Plugin V2.1.6

[CTDB TOCID: czzAQdR8U2E94qBVZsIzm2PxpfM-] found
Submit result: already submitted
Track | CTDB Status
1 | (15/15) Accurately ripped
2 | (15/15) Accurately ripped
3 | (15/15) Accurately ripped
4 | (15/15) Accurately ripped
5 | (15/15) Accurately ripped
6 | (15/15) Accurately ripped
7 | (15/15) Accurately ripped
8 | (15/15) Accurately ripped
9 | (15/15) Accurately ripped
10 | (15/15) Accurately ripped
11 | (15/15) Accurately ripped
12 | (15/15) Accurately ripped
13 | (15/15) Accurately ripped
14 | (15/15) Accurately ripped


==== Log checksum DD1D62D6529B35C2C2ABDD3C89F6FAE42BD70A12D29FA8D2D9BA22343591FFB7 ====

Exact Audio Copy V1.3 from 2. September 2016

EAC extraction logfile from 25. November 2018, 23:13

Crime & the City Solution / Room of Lights

Used drive : HL-DT-STDVD-RAM GHC0N Adapter: 1 ID: 0

Read mode : Secure
Utilize accurate stream : Yes
Defeat audio cache : Yes
Make use of C2 pointers : No

Read offset correction : 6
Overread into Lead-In and Lead-Out : No
Fill up missing offset samples with silence : Yes
Delete leading and trailing silent blocks : No
Null samples used in CRC calculations : Yes
Used interface : Native Win32 interface for Win NT & 2000
Gap handling : Appended to previous track

Used output format : User Defined Encoder
Selected bitrate : 1024 kBit/s
Quality : High
Add ID3 tag : No
Command line compressor : C:\Program Files (x86)\Exact Audio Copy\FLAC\FLAC.EXE
Additional command line options : -8 -V -T "ARTIST=%artist%" -T "TITLE=%title%" -T "ALBUM=%albumtitle%" -T "DATE=%year%" -T "TRACKNUMBER=%tracknr%" -T "GENRE=%genre%" -T "PERFORMER=%albuminterpret%" -T "COMPOSER=%composer%" %haslyrics%–tag-from-file=LYRICS="%lyricsfile%"%haslyrics% -T "ALBUMARTIST=%albumartist%" -T "DISCNUMBER=%cdnumber%" -T "TOTALDISCS=%totalcds%" -T "TOTALTRACKS=%numtracks%" -T "COMMENT=%comment%" %source% -o %dest%


TOC of the extracted CD

Track | Start | Length | Start sector | End sector
––––––––––––––––––––––––––––-
1 | 0:00.00 | 4:19.47 | 0 | 19471
2 | 4:19.47 | 3:50.60 | 19472 | 36781
3 | 8:10.32 | 4:08.65 | 36782 | 55446
4 | 12:19.22 | 5:41.05 | 55447 | 81026
5 | 18:00.27 | 3:24.25 | 81027 | 96351
6 | 21:24.52 | 5:15.45 | 96352 | 120021
7 | 26:40.22 | 3:35.33 | 120022 | 136179
8 | 30:15.55 | 3:51.20 | 136180 | 153524
9 | 34:07.00 | 4:51.32 | 153525 | 175381
10 | 38:58.32 | 5:58.23 | 175382 | 202254
11 | 44:56.55 | 3:17.37 | 202255 | 217066
12 | 48:14.17 | 4:20.45 | 217067 | 236611
13 | 52:34.62 | 4:32.45 | 236612 | 257056
14 | 57:07.32 | 5:32.43 | 257057 | 281999
15 | 62:40.00 | 4:56.47 | 282000 | 304246
16 | 67:36.47 | 5:30.35 | 304247 | 329031


Track 1

Filename C:\Users\awoje\Documents\What.cd\Crime & the City Solution - Room of Lights [FLAC]\01 Right Man, Wrong Man.wav

Pre-gap length 0:00:02.00

Peak level 76.4 %
Extraction speed 2.0 X
Track quality 99.9 %
Test CRC DF5E42CC
Copy CRC DF5E42CC
Accurately ripped (confidence 1) [E2B7DC6A] (AR v2)
Copy OK

Track 2

Filename C:\Users\awoje\Documents\What.cd\Crime & the City Solution - Room of Lights [FLAC]\02 No Money, No Honey.wav

Peak level 73.8 %
Extraction speed 3.3 X
Track quality 100.0 %
Test CRC E837DC8C
Copy CRC E837DC8C
Accurately ripped (confidence 1) [6A2EBBBB] (AR v2)
Copy OK

Track 3

Filename C:\Users\awoje\Documents\What.cd\Crime & the City Solution - Room of Lights [FLAC]\03 Hey Sinkiller.wav

Peak level 75.9 %
Extraction speed 3.5 X
Track quality 100.0 %
Test CRC C47DF0F5
Copy CRC C47DF0F5
Accurately ripped (confidence 1) [F757340E] (AR v2)
Copy OK

Track 4

Filename C:\Users\awoje\Documents\What.cd\Crime & the City Solution - Room of Lights [FLAC]\04 Six Bells Chime.wav

Peak level 70.8 %
Extraction speed 4.0 X
Track quality 100.0 %
Test CRC AEC262EA
Copy CRC AEC262EA
Accurately ripped (confidence 1) [8393C150] (AR v2)
Copy OK

Track 5

Filename C:\Users\awoje\Documents\What.cd\Crime & the City Solution - Room of Lights [FLAC]\05 Adventure.wav

Pre-gap length 0:00:02.69

Peak level 74.6 %
Extraction speed 4.0 X
Track quality 100.0 %
Test CRC 8C8807EA
Copy CRC 8C8807EA
Accurately ripped (confidence 1) [87BD9ED3] (AR v2)
Copy OK

Track 6

Filename C:\Users\awoje\Documents\What.cd\Crime & the City Solution - Room of Lights [FLAC]\06 Untouchable.wav

Peak level 82.3 %
Extraction speed 4.4 X
Track quality 100.0 %
Test CRC 88441162
Copy CRC 88441162
Accurately ripped (confidence 1) [76000BAD] (AR v2)
Copy OK

Track 7

Filename C:\Users\awoje\Documents\What.cd\Crime & the City Solution - Room of Lights [FLAC]\07 The Brother Song.wav

Peak level 64.5 %
Extraction speed 2.7 X
Track quality 99.9 %
Test CRC 19D06B3E
Copy CRC 19D06B3E
Accurately ripped (confidence 1) [3031E78C] (AR v2)
Copy OK

Track 8

Filename C:\Users\awoje\Documents\What.cd\Crime & the City Solution - Room of Lights [FLAC]\08 Her Room of Lights.wav

Peak level 79.7 %
Extraction speed 4.7 X
Track quality 100.0 %
Test CRC 940F3227
Copy CRC 940F3227
Accurately ripped (confidence 1) [9C8159B5] (AR v2)
Copy OK

Track 9

Filename C:\Users\awoje\Documents\What.cd\Crime & the City Solution - Room of Lights [FLAC]\09 Rose Blue.wav

Peak level 78.5 %
Extraction speed 5.0 X
Track quality 100.0 %
Test CRC 0C645019
Copy CRC 0C645019
Accurately ripped (confidence 1) [5090AB0D] (AR v2)
Copy OK

Track 10

Filename C:\Users\awoje\Documents\What.cd\Crime & the City Solution - Room of Lights [FLAC]\10 The Coal Train.wav

Peak level 95.0 %
Extraction speed 5.4 X
Track quality 100.0 %
Test CRC 1873B3ED
Copy CRC 1873B3ED
Accurately ripped (confidence 1) [738F552B] (AR v2)
Copy OK

Track 11

Filename C:\Users\awoje\Documents\What.cd\Crime & the City Solution - Room of Lights [FLAC]\11 Stolen & Stealing.wav

Peak level 55.3 %
Extraction speed 5.2 X
Track quality 100.0 %
Test CRC 91E2FE75
Copy CRC 91E2FE75
Accurately ripped (confidence 1) [5C48974C] (AR v2)
Copy OK

Track 12

Filename C:\Users\awoje\Documents\What.cd\Crime & the City Solution - Room of Lights [FLAC]\12 Five Stone Walls.wav

Peak level 86.8 %
Extraction speed 3.5 X
Track quality 99.9 %
Test CRC 93ECC47D
Copy CRC 93ECC47D
Accurately ripped (confidence 1) [099E4CE1] (AR v2)
Copy OK

Track 13

Filename C:\Users\awoje\Documents\What.cd\Crime & the City Solution - Room of Lights [FLAC]\13 Trouble Come This Morning.wav

Peak level 87.4 %
Extraction speed 3.8 X
Track quality 99.9 %
Test CRC D4A2402D
Copy CRC D4A2402D
Accurately ripped (confidence 1) [CE4A3AFE] (AR v2)
Copy OK

Track 14

Filename C:\Users\awoje\Documents\What.cd\Crime & the City Solution - Room of Lights [FLAC]\14 The Wailing Wall.wav

Pre-gap length 0:00:01.53

Peak level 63.5 %
Extraction speed 6.1 X
Track quality 100.0 %
Test CRC A3DB19EF
Copy CRC A3DB19EF
Accurately ripped (confidence 1) [9A5BD07A] (AR v2)
Copy OK

Track 15

Filename C:\Users\awoje\Documents\What.cd\Crime & the City Solution - Room of Lights [FLAC]\15 It Takes Two to Burn.wav

Pre-gap length 0:00:01.00

Peak level 83.5 %
Extraction speed 6.2 X
Track quality 100.0 %
Test CRC 8AEF7D9B
Copy CRC 8AEF7D9B
Accurately ripped (confidence 1) [C7AFBF2E] (AR v2)
Copy OK

Track 16

Filename C:\Users\awoje\Documents\What.cd\Crime & the City Solution - Room of Lights [FLAC]\16 The Kentucky Click.wav

Peak level 99.9 %
Extraction speed 6.5 X
Track quality 100.0 %
Test CRC 09B4A985
Copy CRC 09B4A985
Accurately ripped (confidence 1) [859C8D94] (AR v2)
Copy OK


All tracks accurately ripped

No errors occurred

End of status report

–– CUETools DB Plugin V2.1.6

[CTDB TOCID: xyEUWq_yqdm4ofMO2VhBuIvNoww-] found
Submit result: xyEUWq_yqdm4ofMO2VhBuIvNoww- has been confirmed
Track | CTDB Status
1 | (1/1) Accurately ripped
2 | (1/1) Accurately ripped
3 | (1/1) Accurately ripped
4 | (1/1) Accurately ripped
5 | (1/1) Accurately ripped
6 | (1/1) Accurately ripped
7 | (1/1) Accurately ripped
8 | (1/1) Accurately ripped
9 | (1/1) Accurately ripped
10 | (1/1) Accurately ripped
11 | (1/1) Accurately ripped
12 | (1/1) Accurately ripped
13 | (1/1) Accurately ripped
14 | (1/1) Accurately ripped
15 | (1/1) Accurately ripped
16 | (1/1) Accurately ripped


==== Log checksum 90D18183FCAEE1F91ADF70CBAE794DDF7EC6635443A25A7A0F6852EEEFAADA8E ====

All thanks go to the What.CD

Crime & the City Solution - 7 Albums (1986-2013)

Crime & the City Solution - Shine (1988)
XLD Rip | FLAC (tracks+.cue, log) ~ 266.64 Mb | 49:42 | Cover
Post-Punk | Country: Australia | Label: Mute - STUMM 59

Track List:
1. "All Must Be Love" (5:19)
2. "Fray So Slow" (4:55)
3. "Angel" (6:02)
4. "On Every Train (Grain Will Bear Grain)" (5:25)
5. "Hunter" (4:48)
6. "Steal to the Sea" (10:16)
7. "Home Is Far From Here" (3:23)
8. "On Every Train (Grain Will Bear Grain)" [12" Version] (4:07)
9. "All Must Be Love" [Early Version] (5:26)



X Lossless Decoder version 20091230 (115.2)

XLD extraction logfile from 2010-01-05 07:11:06 +0000

Crime & The City Solution / Shine

Used drive : MATSHITA DVD-R UJ-868 (revision KB19)

Use cdparanoia mode : YES (CDParanoia III 10.2 engine)
Disable audio cache : OK for the drive with cache less than 2750KB
Make use of C2 pointers : NO
Read offset correction : 102
Max retry count : 100

TOC of the extracted CD
Track | Start | Length | Start sector | End sector
––––––––––––––––––––––––––––-
1 | 00:00:32 | 05:18:40 | 32 | 23921
2 | 05:18:72 | 04:55:23 | 23922 | 46069
3 | 10:14:20 | 06:01:57 | 46070 | 73201
4 | 16:16:02 | 05:25:30 | 73202 | 97606
5 | 21:41:32 | 04:48:28 | 97607 | 119234
6 | 26:29:60 | 10:16:02 | 119235 | 165436
7 | 36:45:62 | 03:23:13 | 165437 | 180674
8 | 40:09:00 | 04:07:25 | 180675 | 199224
9 | 44:16:25 | 05:26:00 | 199225 | 223674

Track 01
Filename : /Users/digitalscratcher/Music/Crime & the City Solution-1988-Shine (flac)/01 - All Must Be Love.flac

Pre-gap length : 00:02:32

CRC32 hash (test run) : A39B179C
CRC32 hash : A39B179C
CRC32 hash (skip zero) : 166169CE
AccurateRip signature : 6745F89E
->Track not present in AccurateRip database.
Statistics
Read error : 0
Skipped (treated as error) : 0
Edge jitter error (maybe fixed) : 0
Atom jitter error (maybe fixed) : 0
Drift error (maybe fixed) : 0
Dropped bytes error (maybe fixed) : 0
Duplicated bytes error (maybe fixed) : 0
Inconsistency in error sectors : 0

Track 02
Filename : /Users/digitalscratcher/Music/Crime & the City Solution-1988-Shine (flac)/02 - Fray So Slow.flac

Pre-gap length : 00:00:02

CRC32 hash (test run) : 6706751F
CRC32 hash : 6706751F
CRC32 hash (skip zero) : BF23E77D
AccurateRip signature : EEC40700
->Track not present in AccurateRip database.
Statistics
Read error : 0
Skipped (treated as error) : 0
Edge jitter error (maybe fixed) : 0
Atom jitter error (maybe fixed) : 0
Drift error (maybe fixed) : 0
Dropped bytes error (maybe fixed) : 0
Duplicated bytes error (maybe fixed) : 0
Inconsistency in error sectors : 0

Track 03
Filename : /Users/digitalscratcher/Music/Crime & the City Solution-1988-Shine (flac)/03 - Angel.flac

Pre-gap length : 00:01:63

CRC32 hash (test run) : 2D59EF5C
CRC32 hash : 2D59EF5C
CRC32 hash (skip zero) : 9E24161F
AccurateRip signature : F4A224C0
->Track not present in AccurateRip database.
Statistics
Read error : 0
Skipped (treated as error) : 0
Edge jitter error (maybe fixed) : 0
Atom jitter error (maybe fixed) : 0
Drift error (maybe fixed) : 0
Dropped bytes error (maybe fixed) : 0
Duplicated bytes error (maybe fixed) : 0
Inconsistency in error sectors : 0

Track 04
Filename : /Users/digitalscratcher/Music/Crime & the City Solution-1988-Shine (flac)/04 - One Every Train (Grain Will Bear Grain).flac

Pre-gap length : 00:00:02

CRC32 hash (test run) : 67D5CE84
CRC32 hash : 67D5CE84
CRC32 hash (skip zero) : 58147991
AccurateRip signature : 952E805F
->Track not present in AccurateRip database.
Statistics
Read error : 0
Skipped (treated as error) : 0
Edge jitter error (maybe fixed) : 0
Atom jitter error (maybe fixed) : 0
Drift error (maybe fixed) : 0
Dropped bytes error (maybe fixed) : 0
Duplicated bytes error (maybe fixed) : 0
Inconsistency in error sectors : 0

Track 05
Filename : /Users/digitalscratcher/Music/Crime & the City Solution-1988-Shine (flac)/05 - Hunter.flac

Pre-gap length : 00:01:25

CRC32 hash (test run) : 33632A4C
CRC32 hash : 33632A4C
CRC32 hash (skip zero) : 1FEC19DE
AccurateRip signature : C0745B19
->Track not present in AccurateRip database.
Statistics
Read error : 0
Skipped (treated as error) : 0
Edge jitter error (maybe fixed) : 0
Atom jitter error (maybe fixed) : 0
Drift error (maybe fixed) : 0
Dropped bytes error (maybe fixed) : 0
Duplicated bytes error (maybe fixed) : 0
Inconsistency in error sectors : 0

Track 06
Filename : /Users/digitalscratcher/Music/Crime & the City Solution-1988-Shine (flac)/06 - Steal To The Sea.flac

Pre-gap length : 00:00:03

CRC32 hash (test run) : 331E48FE
CRC32 hash : 331E48FE
CRC32 hash (skip zero) : 5B83DF7B
AccurateRip signature : 28EE341C
->Track not present in AccurateRip database.
Statistics
Read error : 0
Skipped (treated as error) : 0
Edge jitter error (maybe fixed) : 0
Atom jitter error (maybe fixed) : 0
Drift error (maybe fixed) : 0
Dropped bytes error (maybe fixed) : 0
Duplicated bytes error (maybe fixed) : 0
Inconsistency in error sectors : 0

Track 07
Filename : /Users/digitalscratcher/Music/Crime & the City Solution-1988-Shine (flac)/07 - Home Is Far From Here.flac

Pre-gap length : 00:00:02

CRC32 hash (test run) : 0A6654F7
CRC32 hash : 0A6654F7
CRC32 hash (skip zero) : 916013B5
AccurateRip signature : 8FCE9C48
->Track not present in AccurateRip database.
Statistics
Read error : 0
Skipped (treated as error) : 0
Edge jitter error (maybe fixed) : 0
Atom jitter error (maybe fixed) : 0
Drift error (maybe fixed) : 0
Dropped bytes error (maybe fixed) : 0
Duplicated bytes error (maybe fixed) : 0
Inconsistency in error sectors : 0

Track 08
Filename : /Users/digitalscratcher/Music/Crime & the City Solution-1988-Shine (flac)/08 - On Every Train (Grain Will Bear Grain) 12" Version.flac

Pre-gap length : 00:01:20

CRC32 hash (test run) : 0DA3C5D3
CRC32 hash : 0DA3C5D3
CRC32 hash (skip zero) : 7B832BE5
AccurateRip signature : A3514CEF
->Track not present in AccurateRip database.
Statistics
Read error : 0
Skipped (treated as error) : 0
Edge jitter error (maybe fixed) : 0
Atom jitter error (maybe fixed) : 0
Drift error (maybe fixed) : 0
Dropped bytes error (maybe fixed) : 0
Duplicated bytes error (maybe fixed) : 0
Inconsistency in error sectors : 0

Track 09
Filename : /Users/digitalscratcher/Music/Crime & the City Solution-1988-Shine (flac)/09 - All Must Be Love (Early Version).flac

Pre-gap length : 00:01:58

CRC32 hash (test run) : 24AA0492
CRC32 hash : 24AA0492
CRC32 hash (skip zero) : B254FB7E
AccurateRip signature : 401C48F6
->Track not present in AccurateRip database.
Statistics
Read error : 0
Skipped (treated as error) : 0
Edge jitter error (maybe fixed) : 0
Atom jitter error (maybe fixed) : 0
Drift error (maybe fixed) : 0
Dropped bytes error (maybe fixed) : 0
Duplicated bytes error (maybe fixed) : 0
Inconsistency in error sectors : 0

No errors occurred

End of status report

All thanks go to the What.CD

Crime & the City Solution - 7 Albums (1986-2013)

Crime & the City Solution - The Bride Ship (1989)
EAC Rip | FLAC (tracks+.cue, log) ~ 270.67 Mb | 45:55 | Cover
Post-Punk | Country: Australia | Label: Mute - STUMM 65

Track List:
1. "The Shadow of No Man" (5:26)
2. "The Greater Head" (4:22)
3. "Stone" (4:12)
4. "The Dangling Man" (4:30)
5. "Keepsake" (4:41)
6. "The Bride Ship" (6:23)
7. " Free World" (3:12)
8. "New World" (3:30)
9. "Three/Four" (3:16)
10. "The Bride Ship" (6:23)



Exact Audio Copy V0.99 prebeta 4 from 23. January 2008

EAC extraction logfile from 12. July 2008, 8:31

Crime & The City Solution / The Bride Ship

Used drive : TSSTcorpDVD+-RW TS-L632H Adapter: 2 ID: 0

Read mode : Secure
Utilize accurate stream : Yes
Defeat audio cache : Yes
Make use of C2 pointers : No

Read offset correction : 6
Overread into Lead-In and Lead-Out : No
Fill up missing offset samples with silence : Yes
Delete leading and trailing silent blocks : No
Null samples used in CRC calculations : Yes
Used interface : Native Win32 interface for Win NT & 2000
Gap handling : Appended to previous track

Used output format : User Defined Encoder
Selected bitrate : 768 kBit/s
Quality : High
Add ID3 tag : No
Command line compressor : C:\Program Files\Exact Audio Copy\FLAC\FLAC.EXE
Additional command line options : -V -5 -T "artist=%a" -T "title=%t" -T "album=%g" -T "date=%y" -T "tracknumber=%n" -T "genre=%m" %s


TOC of the extracted CD

Track | Start | Length | Start sector | End sector
––––––––––––––––––––––––––––-
1 | 0:00.72 | 5:26.08 | 72 | 24529
2 | 5:27.05 | 4:22.20 | 24530 | 44199
3 | 9:49.25 | 4:12.32 | 44200 | 63131
4 | 14:01.57 | 4:30.18 | 63132 | 83399
5 | 18:32.00 | 4:40.55 | 83400 | 104454
6 | 23:12.55 | 6:22.70 | 104455 | 133174
7 | 29:35.50 | 3:11.60 | 133175 | 147559
8 | 32:47.35 | 3:29.60 | 147560 | 163294
9 | 36:17.20 | 3:16.15 | 163295 | 178009
10 | 39:33.35 | 6:22.67 | 178010 | 206726


Track 1

Filename H:\Desktop\Crime & The City Solution - The Bride Ship\01 - The Shadow Of No Man.wav

Pre-gap length 0:00:02.96

Peak level 97.6 %
Track quality 99.9 %
Test CRC B05744B5
Copy CRC B05744B5
Track not present in AccurateRip database
Copy OK

Track 2

Filename H:\Desktop\Crime & The City Solution - The Bride Ship\02 - The Greater Head.wav

Pre-gap length 0:00:02.37

Peak level 96.2 %
Track quality 100.0 %
Test CRC B5E3760C
Copy CRC B5E3760C
Track not present in AccurateRip database
Copy OK

Track 3

Filename H:\Desktop\Crime & The City Solution - The Bride Ship\03 - Stone.wav

Pre-gap length 0:00:00.04

Peak level 86.2 %
Track quality 100.0 %
Test CRC 43B629A6
Copy CRC 43B629A6
Track not present in AccurateRip database
Copy OK

Track 4

Filename H:\Desktop\Crime & The City Solution - The Bride Ship\04 - The Dangling Man.wav

Pre-gap length 0:00:01.13

Peak level 84.6 %
Track quality 100.0 %
Test CRC BA9F7447
Copy CRC BA9F7447
Track not present in AccurateRip database
Copy OK

Track 5

Filename H:\Desktop\Crime & The City Solution - The Bride Ship\05 - Keepsake.wav

Pre-gap length 0:00:02.40

Peak level 100.0 %
Track quality 100.0 %
Test CRC D0F083A7
Copy CRC D0F083A7
Track not present in AccurateRip database
Copy OK

Track 6

Filename H:\Desktop\Crime & The City Solution - The Bride Ship\06 - The Bride Ship.wav

Pre-gap length 0:00:02.10

Peak level 83.5 %
Track quality 100.0 %
Test CRC A47A645A
Copy CRC A47A645A
Track not present in AccurateRip database
Copy OK

Track 7

Filename H:\Desktop\Crime & The City Solution - The Bride Ship\07 - Free World.wav

Peak level 78.1 %
Track quality 100.0 %
Test CRC BB2B7E1E
Copy CRC BB2B7E1E
Track not present in AccurateRip database
Copy OK

Track 8

Filename H:\Desktop\Crime & The City Solution - The Bride Ship\08 - New World.wav

Pre-gap length 0:00:00.20

Peak level 82.0 %
Track quality 100.0 %
Test CRC 665A0095
Copy CRC 665A0095
Track not present in AccurateRip database
Copy OK

Track 9

Filename H:\Desktop\Crime & The City Solution - The Bride Ship\09 - Three,Four.wav

Pre-gap length 0:00:02.00

Peak level 95.6 %
Track quality 100.0 %
Test CRC C7A81EAF
Copy CRC C7A81EAF
Track not present in AccurateRip database
Copy OK

Track 10

Filename H:\Desktop\Crime & The City Solution - The Bride Ship\10 - The Bride Ship.wav

Pre-gap length 0:00:01.97

Peak level 85.5 %
Track quality 99.9 %
Test CRC C9C471B6
Copy CRC C9C471B6
Track not present in AccurateRip database
Copy OK


None of the tracks are present in the AccurateRip database

No errors occurred

End of status report

All thanks go to the What.CD

Crime & the City Solution - 7 Albums (1986-2013)

Crime & the City Solution - Paradise Discotheque (1990)
XLD Rip | FLAC (tracks+.cue, log) ~ 215.97 Mb | 38:35 | Cover
Post-Punk | Country: Australia | Label: Mute - STUMM 78

Track List:
1. "I Have the Gun" (3:33)
2. "The Sly Persuaders" (4:11)
3. "The Dolphins and the Sharks" (4:44)
4. "The Sun Before the Darkness" (5:17)
5. "Motherless Child" (3:49)
6. "The Last Dictator I" (4:40)
7. "The Last Dictator II" (5:01)
8. "The Last Dictator III" (4:48)
9. "The Last Dictator IV" (2:33)



X Lossless Decoder version 20161007 (149.3)

XLD extraction logfile from 2017-03-26 17:21:07 -0400

Crime & the City Solution / Paradise Discotheque

Used drive : SONY DVD RW DRU-710A (revision BYZ1)
Media type : Pressed CD

Ripper mode : XLD Secure Ripper
Disable audio cache : OK for the drive with a cache less than 1375KiB
Make use of C2 pointers : NO
Read offset correction : 12
Max retry count : 20
Gap status : Analyzed, Appended (except HTOA)

TOC of the extracted CD
Track | Start | Length | Start sector | End sector
––––––––––––––––––––––––––––-
1 | 00:00:32 | 03:33:23 | 32 | 16029
2 | 03:33:55 | 04:10:55 | 16030 | 34834
3 | 07:44:35 | 04:43:47 | 34835 | 56106
4 | 12:28:07 | 05:16:73 | 56107 | 79879
5 | 17:45:05 | 03:48:65 | 79880 | 97044
6 | 21:33:70 | 04:40:17 | 97045 | 118061
7 | 26:14:12 | 05:00:70 | 118062 | 140631
8 | 31:15:07 | 04:47:50 | 140632 | 162206
9 | 36:02:57 | 02:33:10 | 162207 | 173691

AccurateRip Summary (DiscID: 000d67ba-00630b58-7c090b09)
Track 01 : OK (v1, confidence 10/10)
Track 02 : OK (v1, confidence 10/10)
Track 03 : OK (v1, confidence 10/10)
Track 04 : OK (v1, confidence 10/10)
Track 05 : OK (v1, confidence 10/10)
Track 06 : OK (v1, confidence 10/10)
Track 07 : OK (v1, confidence 10/10)
Track 08 : OK (v1, confidence 10/10)
Track 09 : OK (v1, confidence 10/10)
->All tracks accurately ripped.

All Tracks
Album gain : -1.06 dB
Peak : 0.948944
Statistics
Read error : 0
Jitter error (maybe fixed) : 0
Retry sector count : 0
Damaged sector count : 0

Track 01
Filename : /Users/timdonnelly/Music/New Rips - Need to Export/Crime & the City Solution - Paradise Discotheque (1990) [FLAC]/01 I Have the Gun.flac
Pre-gap length : 00:02:32

Track gain : -2.11 dB
Peak : 0.948944
CRC32 hash (test run) : 783F5B48
CRC32 hash : 783F5B48
CRC32 hash (skip zero) : 882EDB38
AccurateRip v1 signature : 8E4161EF
AccurateRip v2 signature : 7326042A
->Accurately ripped (v1, confidence 10/10)
Statistics
Read error : 0
Jitter error (maybe fixed) : 0
Retry sector count : 0
Damaged sector count : 0

Track 02
Filename : /Users/timdonnelly/Music/New Rips - Need to Export/Crime & the City Solution - Paradise Discotheque (1990) [FLAC]/02 The Sly Persuaders.flac
Pre-gap length : 00:01:23

Track gain : -1.26 dB
Peak : 0.912048
CRC32 hash (test run) : D345BFC2
CRC32 hash : D345BFC2
CRC32 hash (skip zero) : D871B427
AccurateRip v1 signature : A133BB77
AccurateRip v2 signature : B32861D3
->Accurately ripped (v1, confidence 10/10)
Statistics
Read error : 0
Jitter error (maybe fixed) : 0
Retry sector count : 0
Damaged sector count : 0

Track 03
Filename : /Users/timdonnelly/Music/New Rips - Need to Export/Crime & the City Solution - Paradise Discotheque (1990) [FLAC]/03 The Dolphins and the Sharks.flac
Pre-gap length : 00:01:23

Track gain : -0.98 dB
Peak : 0.829315
CRC32 hash (test run) : 69812AB2
CRC32 hash : 69812AB2
CRC32 hash (skip zero) : F8D8D07F
AccurateRip v1 signature : 96873A80
AccurateRip v2 signature : 98541313
->Accurately ripped (v1, confidence 10/10)
Statistics
Read error : 0
Jitter error (maybe fixed) : 0
Retry sector count : 0
Damaged sector count : 0

Track 04
Filename : /Users/timdonnelly/Music/New Rips - Need to Export/Crime & the City Solution - Paradise Discotheque (1990) [FLAC]/04 The Sun Before the Darkness.flac
Pre-gap length : 00:02:02

Track gain : -2.34 dB
Peak : 0.856689
CRC32 hash (test run) : 829932BE
CRC32 hash : 829932BE
CRC32 hash (skip zero) : F348A73D
AccurateRip v1 signature : 96DC94E8
AccurateRip v2 signature : D0E3A14B
->Accurately ripped (v1, confidence 10/10)
Statistics
Read error : 0
Jitter error (maybe fixed) : 0
Retry sector count : 0
Damaged sector count : 0

Track 05
Filename : /Users/timdonnelly/Music/New Rips - Need to Export/Crime & the City Solution - Paradise Discotheque (1990) [FLAC]/05 Motherless Child.flac
Pre-gap length : 00:03:30

Track gain : -1.21 dB
Peak : 0.832947
CRC32 hash (test run) : ABAF38B2
CRC32 hash : ABAF38B2
CRC32 hash (skip zero) : 59F1EFFF
AccurateRip v1 signature : CE374CF4
AccurateRip v2 signature : 22DCD458
->Accurately ripped (v1, confidence 10/10)
Statistics
Read error : 0
Jitter error (maybe fixed) : 0
Retry sector count : 0
Damaged sector count : 0

Track 06
Filename : /Users/timdonnelly/Music/New Rips - Need to Export/Crime & the City Solution - Paradise Discotheque (1990) [FLAC]/06 The Last Dictator I.flac

Track gain : 0.75 dB
Peak : 0.831696
CRC32 hash (test run) : 5E006012
CRC32 hash : 5E006012
CRC32 hash (skip zero) : 6C952367
AccurateRip v1 signature : F6E7B4AA
AccurateRip v2 signature : E47E27C7
->Accurately ripped (v1, confidence 10/10)
Statistics
Read error : 0
Jitter error (maybe fixed) : 0
Retry sector count : 0
Damaged sector count : 0

Track 07
Filename : /Users/timdonnelly/Music/New Rips - Need to Export/Crime & the City Solution - Paradise Discotheque (1990) [FLAC]/07 The Last Dictator II.flac
Pre-gap length : 00:01:05

Track gain : -0.32 dB
Peak : 0.734894
CRC32 hash (test run) : 8D1B8160
CRC32 hash : 8D1B8160
CRC32 hash (skip zero) : DB270BAE
AccurateRip v1 signature : D4939D4A
AccurateRip v2 signature : A21F5342
->Accurately ripped (v1, confidence 10/10)
Statistics
Read error : 0
Jitter error (maybe fixed) : 0
Retry sector count : 0
Damaged sector count : 0

Track 08
Filename : /Users/timdonnelly/Music/New Rips - Need to Export/Crime & the City Solution - Paradise Discotheque (1990) [FLAC]/08 The Last Dictator III.flac

Track gain : 2.18 dB
Peak : 0.734955
CRC32 hash (test run) : 2FBFD894
CRC32 hash : 2FBFD894
CRC32 hash (skip zero) : 8584D993
AccurateRip v1 signature : 05C595E6
AccurateRip v2 signature : 839239FF
->Accurately ripped (v1, confidence 10/10)
Statistics
Read error : 0
Jitter error (maybe fixed) : 0
Retry sector count : 0
Damaged sector count : 0

Track 09
Filename : /Users/timdonnelly/Music/New Rips - Need to Export/Crime & the City Solution - Paradise Discotheque (1990) [FLAC]/09 The Last Dictator IV.flac

Track gain : 0.25 dB
Peak : 0.726379
CRC32 hash (test run) : 19CD03C1
CRC32 hash : 19CD03C1
CRC32 hash (skip zero) : 16BE4BE5
AccurateRip v1 signature : 95DF7E43
AccurateRip v2 signature : F37C0D56
->Accurately ripped (v1, confidence 10/10)
Statistics
Read error : 0
Jitter error (maybe fixed) : 0
Retry sector count : 0
Damaged sector count : 0

No errors occurred

End of status report

––-BEGIN XLD SIGNATURE––-
.22YERHSbmvhr9WM2.arNKfzC75G9RxfY4j0u9i0M9htmhXcLkp08juNG0Tbb70lds6JXdGRZkt88P8Lid43uHsJWhKSatM5B7dWrlu
––-END XLD SIGNATURE––-

All thanks go to the What.CD

Crime & the City Solution - 7 Albums (1986-2013)

Crime & the City Solution - The Adversary - Live (1993)
EAC Rip | FLAC (tracks+.cue, log) ~ 381.04 Mb | 58:08 | Cover
Post-Punk | Country: Australia | Label: Mute - STUMM 110

Track List:
1. "The Adversary" (5:32)
2. "Keep Sake" (5:20)
3. "All Must Be Love" (5:42)
4. "The Last Dictator I" (4:25)
5. "The Last Dictator II" (5:19)
6. "The Dangling Man" (4:26)
7. "On Every Train (Grain Will Bear Grain)" (3:41)
8. "Angel" (6:07)
9. "The Dolphins and the Sharks" (4:40)
10. "The Bride Ship" (3:07)
11. "The Free World" (3:36)
12. "The Sun Before Darkness" (6:13)



Exact Audio Copy V1.3 from 2. September 2016

EAC extraction logfile from 7. January 2019, 10:03

Crime & the City Solution / The Adversary - Live

Used drive : HL-DT-STDVD-RAM GHC0N Adapter: 1 ID: 0

Read mode : Secure
Utilize accurate stream : Yes
Defeat audio cache : Yes
Make use of C2 pointers : No

Read offset correction : 6
Overread into Lead-In and Lead-Out : No
Fill up missing offset samples with silence : Yes
Delete leading and trailing silent blocks : No
Null samples used in CRC calculations : Yes
Used interface : Native Win32 interface for Win NT & 2000
Gap handling : Appended to previous track

Used output format : User Defined Encoder
Selected bitrate : 1024 kBit/s
Quality : High
Add ID3 tag : No
Command line compressor : C:\Program Files (x86)\Exact Audio Copy\FLAC\FLAC.EXE
Additional command line options : -8 -V -T "ARTIST=%artist%" -T "TITLE=%title%" -T "ALBUM=%albumtitle%" -T "DATE=%year%" -T "TRACKNUMBER=%tracknr%" -T "GENRE=%genre%" -T "PERFORMER=%albuminterpret%" -T "COMPOSER=%composer%" %haslyrics%–tag-from-file=LYRICS="%lyricsfile%"%haslyrics% -T "ALBUMARTIST=%albumartist%" -T "DISCNUMBER=%cdnumber%" -T "TOTALDISCS=%totalcds%" -T "TOTALTRACKS=%numtracks%" -T "COMMENT=%comment%" %source% -o %dest%


TOC of the extracted CD

Track | Start | Length | Start sector | End sector
––––––––––––––––––––––––––––-
1 | 0:00.00 | 5:32.25 | 0 | 24924
2 | 5:32.25 | 5:19.65 | 24925 | 48914
3 | 10:52.15 | 5:42.07 | 48915 | 74571
4 | 16:34.22 | 4:24.58 | 74572 | 94429
5 | 20:59.05 | 5:18.42 | 94430 | 118321
6 | 26:17.47 | 4:26.35 | 118322 | 138306
7 | 30:44.07 | 3:40.70 | 138307 | 154876
8 | 34:25.02 | 6:07.03 | 154877 | 182404
9 | 40:32.05 | 4:39.45 | 182405 | 203374
10 | 45:11.50 | 3:06.67 | 203375 | 217391
11 | 48:18.42 | 3:36.10 | 217392 | 233601
12 | 51:54.52 | 6:12.70 | 233602 | 261571


Track 1

Filename C:\Users\awoje\Documents\What.cd\Crime & the City Solution - The Adversary - Live [FLAC]\01 The Adversary.wav

Pre-gap length 0:00:02.00

Peak level 89.0 %
Extraction speed 2.4 X
Track quality 99.9 %
Test CRC 89583690
Copy CRC 89583690
Accurately ripped (confidence 8) [A98C90D6] (AR v2)
Copy OK

Track 2

Filename C:\Users\awoje\Documents\What.cd\Crime & the City Solution - The Adversary - Live [FLAC]\02 Keep sake.wav

Peak level 91.7 %
Extraction speed 3.2 X
Track quality 100.0 %
Test CRC 58943D63
Copy CRC 58943D63
Accurately ripped (confidence 8) [DD9380A6] (AR v2)
Copy OK

Track 3

Filename C:\Users\awoje\Documents\What.cd\Crime & the City Solution - The Adversary - Live [FLAC]\03 All Must Be Love.wav

Peak level 95.0 %
Extraction speed 3.6 X
Track quality 100.0 %
Test CRC 59E7DBB0
Copy CRC 59E7DBB0
Accurately ripped (confidence 8) [B811FE1A] (AR v2)
Copy OK

Track 4

Filename C:\Users\awoje\Documents\What.cd\Crime & the City Solution - The Adversary - Live [FLAC]\04 The Last Dictator I.wav

Peak level 94.6 %
Extraction speed 3.8 X
Track quality 100.0 %
Test CRC 00BEBEB2
Copy CRC 00BEBEB2
Accurately ripped (confidence 8) [B6072F5E] (AR v2)
Copy OK

Track 5

Filename C:\Users\awoje\Documents\What.cd\Crime & the City Solution - The Adversary - Live [FLAC]\05 The Last Dictator II.wav

Peak level 91.5 %
Extraction speed 4.1 X
Track quality 100.0 %
Test CRC E711C592
Copy CRC E711C592
Accurately ripped (confidence 8) [C7E147DD] (AR v2)
Copy OK

Track 6

Filename C:\Users\awoje\Documents\What.cd\Crime & the City Solution - The Adversary - Live [FLAC]\06 The Dangling Man.wav

Peak level 96.4 %
Extraction speed 4.2 X
Track quality 100.0 %
Test CRC 2A2DD5A6
Copy CRC 2A2DD5A6
Accurately ripped (confidence 8) [CA340D52] (AR v2)
Copy OK

Track 7

Filename C:\Users\awoje\Documents\What.cd\Crime & the City Solution - The Adversary - Live [FLAC]\07 On Every Train (Grain Will Bear Grain).wav

Peak level 89.9 %
Extraction speed 4.3 X
Track quality 100.0 %
Test CRC 6E4AEA60
Copy CRC 6E4AEA60
Accurately ripped (confidence 8) [72E56B39] (AR v2)
Copy OK

Track 8

Filename C:\Users\awoje\Documents\What.cd\Crime & the City Solution - The Adversary - Live [FLAC]\08 Angel.wav

Peak level 93.3 %
Extraction speed 4.8 X
Track quality 100.0 %
Test CRC 5850832B
Copy CRC 5850832B
Accurately ripped (confidence 8) [6A445D14] (AR v2)
Copy OK

Track 9

Filename C:\Users\awoje\Documents\What.cd\Crime & the City Solution - The Adversary - Live [FLAC]\09 The Dolphins and the Sharks.wav

Peak level 89.2 %
Extraction speed 4.8 X
Track quality 100.0 %
Test CRC AD266E4A
Copy CRC AD266E4A
Accurately ripped (confidence 8) [EEBED65B] (AR v2)
Copy OK

Track 10

Filename C:\Users\awoje\Documents\What.cd\Crime & the City Solution - The Adversary - Live [FLAC]\10 The Bride Ship.wav

Peak level 90.7 %
Extraction speed 3.5 X
Track quality 99.9 %
Test CRC 01F38481
Copy CRC 01F38481
Accurately ripped (confidence 8) [859E27ED] (AR v2)
Copy OK

Track 11

Filename C:\Users\awoje\Documents\What.cd\Crime & the City Solution - The Adversary - Live [FLAC]\11 The Free World.wav

Peak level 99.4 %
Extraction speed 3.8 X
Track quality 99.9 %
Test CRC E20B51DD
Copy CRC E20B51DD
Accurately ripped (confidence 8) [5C28C3AE] (AR v2)
Copy OK

Track 12

Filename C:\Users\awoje\Documents\What.cd\Crime & the City Solution - The Adversary - Live [FLAC]\12 The Sun Before Darkness.wav

Peak level 89.9 %
Extraction speed 5.5 X
Track quality 100.0 %
Test CRC 17B1C52B
Copy CRC 17B1C52B
Accurately ripped (confidence 8) [55CBB671] (AR v2)
Copy OK


All tracks accurately ripped

No errors occurred

End of status report

–– CUETools DB Plugin V2.1.6

[CTDB TOCID: vhYn1zfMAVZSq.0PNiyHJCP4vdk-] found
Submit result: vhYn1zfMAVZSq.0PNiyHJCP4vdk- has been confirmed
Track | CTDB Status
1 | ( 7/13) Accurately ripped
2 | ( 7/13) Accurately ripped
3 | ( 7/13) Accurately ripped
4 | ( 7/13) Accurately ripped
5 | ( 7/13) Accurately ripped
6 | ( 7/13) Accurately ripped
7 | ( 7/13) Accurately ripped
8 | ( 7/13) Accurately ripped
9 | ( 7/13) Accurately ripped
10 | ( 7/13) Accurately ripped
11 | ( 7/13) Accurately ripped
12 | ( 7/13) Accurately ripped


==== Log checksum 26E09A55E0D7A988EA0DD711C6E0EBE80AC8296131B630BD7ABBC1479CCAF9EE ====

All thanks go to the What.CD

Crime & the City Solution - 7 Albums (1986-2013)

Crime & the City Solution - A History of Crime (Berlin 1987-1991) (2012)
EAC Rip | FLAC (tracks+.cue, log) ~ 435.84 Mb | 01:11:35 | Cover
Post-Punk | Country: Australia | Label: Mute - CDMUTEL21

Track List:
1. "All Must Be Love" (5:20)
2. "Hunter" (4:49)
3. "On Every Train (Grain Will Bear Grain)" (4:00)
4. "Home Is Far From Here" (3:23)
5. "Keepsake" (4:41)
6. "The Bride Ship" (6:23)
7. "Free World" (3:13)
8. "New World" (3:28)
9. "I Have the Gun" (3:35)
10. "The Dolphins and the Sharks" (4:43)
11. "The Sun Before the Darkness" (5:16)
12. "The Last Dictator I" (4:41)
13. "The Last Dictator II" (5:03)
14. "The Last Dictator III" (4:46)
15. "The Last Dictator IV" (2:36)
16. "The Adversary" (5:35)



Exact Audio Copy V1.3 from 2. September 2016

EAC extraction logfile from 14. February 2017, 23:37

Crime and the City Solution / A History of Crime: Berlin 1987 - 1991

Used drive : HL-DT-STDVDRAM GUE1N Adapter: 1 ID: 0

Read mode : Secure
Utilize accurate stream : Yes
Defeat audio cache : Yes
Make use of C2 pointers : No

Read offset correction : 6
Overread into Lead-In and Lead-Out : No
Fill up missing offset samples with silence : Yes
Delete leading and trailing silent blocks : No
Null samples used in CRC calculations : Yes
Used interface : Native Win32 interface for Win NT & 2000
Gap handling : Appended to previous track

Used output format : User Defined Encoder
Selected bitrate : 1024 kBit/s
Quality : High
Add ID3 tag : No
Command line compressor : C:\Program Files (x86)\Exact Audio Copy\Flac\flac.exe
Additional command line options : -8 -e -V -T "ARTIST=%artist%" -T "TITLE=%title%" -T "ALBUM=%albumtitle%" -T "DATE=%year%" -T "TRACKNUMBER=%tracknr%" -T "GENRE=%genre%" -T "PERFORMER=%albuminterpret%" -T "COMPOSER=%composer%" %haslyrics%–tag-from-file=LYRICS="%lyricsfile%"%haslyrics% -T "ALBUMARTIST=%albumartist%" -T "DISCNUMBER=%cdnumber%" -T "TOTALDISCS=%totalcds%" -T "TOTALTRACKS=%numtracks%" -T "COMMENT=%comment%" %source% -o %dest%


TOC of the extracted CD

Track | Start | Length | Start sector | End sector
––––––––––––––––––––––––––––-
1 | 0:00.00 | 5:20.30 | 0 | 24029
2 | 5:20.30 | 4:49.13 | 24030 | 45717
3 | 10:09.43 | 3:59.50 | 45718 | 63692
4 | 14:09.18 | 3:23.36 | 63693 | 78953
5 | 17:32.54 | 4:40.74 | 78954 | 100027
6 | 22:13.53 | 6:23.17 | 100028 | 128769
7 | 28:36.70 | 3:13.37 | 128770 | 143281
8 | 31:50.32 | 3:28.21 | 143282 | 158902
9 | 35:18.53 | 3:34.45 | 158903 | 174997
10 | 38:53.23 | 4:43.36 | 174998 | 196258
11 | 43:36.59 | 5:15.72 | 196259 | 219955
12 | 48:52.56 | 4:41.21 | 219956 | 241051
13 | 53:34.02 | 5:02.74 | 241052 | 263775
14 | 58:37.01 | 4:46.24 | 263776 | 285249
15 | 63:23.25 | 2:36.34 | 285250 | 296983
16 | 65:59.59 | 5:35.12 | 296984 | 322120


Track 1

Filename C:\Users\mark\Music\Crime & The City Solution\Crime & The City Solution - A History Of Crime - Berlin 1987 - 1991 An Introduction To Crime & The City Solution (2012)(CDMUTE 23)[FLAC]\01 All Must Be Love.wav

Pre-gap length 0:00:02.00

Peak level 99.4 %
Extraction speed 1.3 X
Track quality 100.0 %
Test CRC D09B85FB
Copy CRC D09B85FB
Accurately ripped (confidence 4) [A6E6EFC5] (AR v2)
Copy OK

Track 2

Filename C:\Users\mark\Music\Crime & The City Solution\Crime & The City Solution - A History Of Crime - Berlin 1987 - 1991 An Introduction To Crime & The City Solution (2012)(CDMUTE 23)[FLAC]\02 Hunter.wav

Pre-gap length 0:00:01.77

Peak level 99.4 %
Extraction speed 1.3 X
Track quality 99.9 %
Test CRC 5969812E
Copy CRC 5969812E
Accurately ripped (confidence 4) [1B5CA594] (AR v2)
Copy OK

Track 3

Filename C:\Users\mark\Music\Crime & The City Solution\Crime & The City Solution - A History Of Crime - Berlin 1987 - 1991 An Introduction To Crime & The City Solution (2012)(CDMUTE 23)[FLAC]\03 On Every Train (Grain Will Bear Grain).wav

Pre-gap length 0:00:00.57

Peak level 99.4 %
Extraction speed 1.4 X
Track quality 99.9 %
Test CRC 001AA0C7
Copy CRC 001AA0C7
Accurately ripped (confidence 4) [48D0ED8B] (AR v2)
Copy OK

Track 4

Filename C:\Users\mark\Music\Crime & The City Solution\Crime & The City Solution - A History Of Crime - Berlin 1987 - 1991 An Introduction To Crime & The City Solution (2012)(CDMUTE 23)[FLAC]\04 Home Is Far From Here.wav

Peak level 99.4 %
Extraction speed 1.4 X
Track quality 99.9 %
Test CRC DF3CF23E
Copy CRC DF3CF23E
Accurately ripped (confidence 4) [FBC58639] (AR v2)
Copy OK

Track 5

Filename C:\Users\mark\Music\Crime & The City Solution\Crime & The City Solution - A History Of Crime - Berlin 1987 - 1991 An Introduction To Crime & The City Solution (2012)(CDMUTE 23)[FLAC]\05 Keepsake.wav

Pre-gap length 0:00:01.77

Peak level 99.4 %
Extraction speed 1.8 X
Track quality 100.0 %
Test CRC AA9A66CC
Copy CRC AA9A66CC
Accurately ripped (confidence 4) [7F70F13D] (AR v2)
Copy OK

Track 6

Filename C:\Users\mark\Music\Crime & The City Solution\Crime & The City Solution - A History Of Crime - Berlin 1987 - 1991 An Introduction To Crime & The City Solution (2012)(CDMUTE 23)[FLAC]\06 The Bride Ship.wav

Pre-gap length 0:00:01.77

Peak level 99.4 %
Extraction speed 1.9 X
Track quality 100.0 %
Test CRC 64C0EA10
Copy CRC 64C0EA10
Accurately ripped (confidence 4) [4384E864] (AR v2)
Copy OK

Track 7

Filename C:\Users\mark\Music\Crime & The City Solution\Crime & The City Solution - A History Of Crime - Berlin 1987 - 1991 An Introduction To Crime & The City Solution (2012)(CDMUTE 23)[FLAC]\07 Free World.wav

Peak level 96.0 %
Extraction speed 1.9 X
Track quality 100.0 %
Test CRC 4787D599
Copy CRC 4787D599
Accurately ripped (confidence 4) [72CD92C7] (AR v2)
Copy OK

Track 8

Filename C:\Users\mark\Music\Crime & The City Solution\Crime & The City Solution - A History Of Crime - Berlin 1987 - 1991 An Introduction To Crime & The City Solution (2012)(CDMUTE 23)[FLAC]\08 New World.wav

Pre-gap length 0:00:02.18

Peak level 99.4 %
Extraction speed 2.0 X
Track quality 100.0 %
Test CRC 7ECC6FBF
Copy CRC 7ECC6FBF
Accurately ripped (confidence 4) [B8A1E5DB] (AR v2)
Copy OK

Track 9

Filename C:\Users\mark\Music\Crime & The City Solution\Crime & The City Solution - A History Of Crime - Berlin 1987 - 1991 An Introduction To Crime & The City Solution (2012)(CDMUTE 23)[FLAC]\09 I Have The Gun.wav

Pre-gap length 0:00:01.77

Peak level 99.4 %
Extraction speed 2.0 X
Track quality 100.0 %
Test CRC 4AC20397
Copy CRC 4AC20397
Accurately ripped (confidence 4) [8024319B] (AR v2)
Copy OK

Track 10

Filename C:\Users\mark\Music\Crime & The City Solution\Crime & The City Solution - A History Of Crime - Berlin 1987 - 1991 An Introduction To Crime & The City Solution (2012)(CDMUTE 23)[FLAC]\10 The Dolphins & The Sharks.wav

Pre-gap length 0:00:01.77

Peak level 99.4 %
Extraction speed 2.2 X
Track quality 100.0 %
Test CRC FD1C1A99
Copy CRC FD1C1A99
Accurately ripped (confidence 4) [DBF9EDE8] (AR v2)
Copy OK

Track 11

Filename C:\Users\mark\Music\Crime & The City Solution\Crime & The City Solution - A History Of Crime - Berlin 1987 - 1991 An Introduction To Crime & The City Solution (2012)(CDMUTE 23)[FLAC]\11 The Sun Before The Darkness.wav

Pre-gap length 0:00:01.77

Peak level 99.4 %
Extraction speed 2.2 X
Track quality 100.0 %
Test CRC 6C359998
Copy CRC 6C359998
Accurately ripped (confidence 4) [AA1A7DC8] (AR v2)
Copy OK

Track 12

Filename C:\Users\mark\Music\Crime & The City Solution\Crime & The City Solution - A History Of Crime - Berlin 1987 - 1991 An Introduction To Crime & The City Solution (2012)(CDMUTE 23)[FLAC]\12 The Last Dictator Part 1.wav

Pre-gap length 0:00:01.77

Peak level 99.4 %
Extraction speed 2.3 X
Track quality 100.0 %
Test CRC 4EEA49CD
Copy CRC 4EEA49CD
Accurately ripped (confidence 4) [5E1742A1] (AR v2)
Copy OK

Track 13

Filename C:\Users\mark\Music\Crime & The City Solution\Crime & The City Solution - A History Of Crime - Berlin 1987 - 1991 An Introduction To Crime & The City Solution (2012)(CDMUTE 23)[FLAC]\13 The Last Dictator Part 2.wav

Pre-gap length 0:00:01.77

Peak level 99.4 %
Extraction speed 2.4 X
Track quality 100.0 %
Test CRC 2920900A
Copy CRC 2920900A
Accurately ripped (confidence 4) [FF46E4F4] (AR v2)
Copy OK

Track 14

Filename C:\Users\mark\Music\Crime & The City Solution\Crime & The City Solution - A History Of Crime - Berlin 1987 - 1991 An Introduction To Crime & The City Solution (2012)(CDMUTE 23)[FLAC]\14 The Last Dictator Part 3.wav

Pre-gap length 0:00:01.77

Peak level 99.4 %
Extraction speed 2.5 X
Track quality 100.0 %
Test CRC 49B986F0
Copy CRC 49B986F0
Accurately ripped (confidence 4) [6B64C77E] (AR v2)
Copy OK

Track 15

Filename C:\Users\mark\Music\Crime & The City Solution\Crime & The City Solution - A History Of Crime - Berlin 1987 - 1991 An Introduction To Crime & The City Solution (2012)(CDMUTE 23)[FLAC]\15 The Last Dictator Part 4.wav

Peak level 99.4 %
Extraction speed 2.4 X
Track quality 100.0 %
Test CRC C46A455C
Copy CRC C46A455C
Accurately ripped (confidence 4) [771459D9] (AR v2)
Copy OK

Track 16

Filename C:\Users\mark\Music\Crime & The City Solution\Crime & The City Solution - A History Of Crime - Berlin 1987 - 1991 An Introduction To Crime & The City Solution (2012)(CDMUTE 23)[FLAC]\16 The Adversary.wav

Pre-gap length 0:00:01.77

Peak level 99.4 %
Extraction speed 2.7 X
Track quality 100.0 %
Test CRC 9EA91140
Copy CRC 9EA91140
Accurately ripped (confidence 4) [D95F7AC4] (AR v2)
Copy OK


All tracks accurately ripped

No errors occurred

End of status report

–– CUETools DB Plugin V2.1.6

[CTDB TOCID: 4WwSUEbBg9xtTKrzs7HNAmHdHxI-] found
Submit result: 4WwSUEbBg9xtTKrzs7HNAmHdHxI- has been confirmed
Track | CTDB Status
1 | (2/2) Accurately ripped
2 | (2/2) Accurately ripped
3 | (2/2) Accurately ripped
4 | (2/2) Accurately ripped
5 | (2/2) Accurately ripped
6 | (2/2) Accurately ripped
7 | (2/2) Accurately ripped
8 | (2/2) Accurately ripped
9 | (2/2) Accurately ripped
10 | (2/2) Accurately ripped
11 | (2/2) Accurately ripped
12 | (2/2) Accurately ripped
13 | (2/2) Accurately ripped
14 | (2/2) Accurately ripped
15 | (2/2) Accurately ripped
16 | (2/2) Accurately ripped


==== Log checksum A814AA1D275D3FDE8F4D2B6FA1016FD75FE2AF463E17F3636A824D3236C1C4D3 ====

All thanks go to the What.CD

Crime & the City Solution - 7 Albums (1986-2013)

Crime & the City Solution - American Twilight (2013)
EAC Rip | FLAC (tracks+.cue, log) ~ 249.16 Mb | 41:08 | Cover
Post-Punk | Country: Australia | Label: Mute - STUMM 339

Track List:
1. "Goddess" (3:50)
2. "My Love Takes Me There" (4:10)
3. "Riven Man" (4:33)
4. "Domina" (6:48)
5. "The Colonel (Doesn't Call Anymore)" (6:31)
6. "Beyond Good and Evil" (4:09)
7. "American Twilight" (5:19)
8. "Streets of West Memphis" (5:49)



Exact Audio Copy V1.0 beta 3 from 29. August 2011

EAC extraction logfile from 12. April 2013, 15:04

Crime & The City Solution / American Twilight

Used drive : HL-DT-STDVDRWBD CA10N Adapter: 1 ID: 0

Read mode : Secure
Utilize accurate stream : Yes
Defeat audio cache : Yes
Make use of C2 pointers : No

Read offset correction : 667
Overread into Lead-In and Lead-Out : No
Fill up missing offset samples with silence : Yes
Delete leading and trailing silent blocks : No
Null samples used in CRC calculations : Yes
Used interface : Native Win32 interface for Win NT & 2000
Gap handling : Appended to previous track

Used output format : User Defined Encoder
Selected bitrate : 1024 kBit/s
Quality : High
Add ID3 tag : No
Command line compressor : C:\Program Files (x86)\Exact Audio Copy\FLAC\FLAC.EXE
Additional command line options : -8 -V -T "ARTIST=%artist%" -T "TITLE=%title%" -T "ALBUM=%albumtitle%" -T "DATE=%year%" -T "TRACKNUMBER=%tracknr%" -T "GENRE=%genre%" -T "COMMENT=%comment%" %hascover%–picture="%coverfile%"%hascover% %source% -o %dest%


TOC of the extracted CD

Track | Start | Length | Start sector | End sector
––––––––––––––––––––––––––––-
1 | 0:00.00 | 3:49.55 | 0 | 17229
2 | 3:49.55 | 4:09.51 | 17230 | 35955
3 | 7:59.31 | 4:33.22 | 35956 | 56452
4 | 12:32.53 | 6:48.02 | 56453 | 87054
5 | 19:20.55 | 6:30.56 | 87055 | 116360
6 | 25:51.36 | 4:08.72 | 116361 | 135032
7 | 30:00.33 | 5:18.55 | 135033 | 158937
8 | 35:19.13 | 5:48.39 | 158938 | 185076


Track 1

Filename C:\EAC\Crime & The City Solution - American Twilight\01 - Goddess.wav

Pre-gap length 0:00:02.00

Peak level 94.4 %
Extraction speed 2.4 X
Track quality 99.9 %
Test CRC 375C48CD
Copy CRC 375C48CD
Track not present in AccurateRip database
Copy OK

Track 2

Filename C:\EAC\Crime & The City Solution - American Twilight\02 - My Love Takes Me There.wav

Peak level 94.4 %
Extraction speed 2.7 X
Track quality 99.9 %
Test CRC 7580D953
Copy CRC 7580D953
Track not present in AccurateRip database
Copy OK

Track 3

Filename C:\EAC\Crime & The City Solution - American Twilight\03 - Riven Man.wav

Peak level 94.4 %
Extraction speed 3.5 X
Track quality 100.0 %
Test CRC E5AEBE73
Copy CRC E5AEBE73
Track not present in AccurateRip database
Copy OK

Track 4

Filename C:\EAC\Crime & The City Solution - American Twilight\04 - Domina.wav

Peak level 94.4 %
Extraction speed 3.6 X
Track quality 99.9 %
Test CRC 130B3D37
Copy CRC 130B3D37
Track not present in AccurateRip database
Copy OK

Track 5

Filename C:\EAC\Crime & The City Solution - American Twilight\05 - The Colonel (Doesn't Call Anymore).wav

Peak level 94.4 %
Extraction speed 4.0 X
Track quality 99.9 %
Test CRC EC9A61F4
Copy CRC EC9A61F4
Track not present in AccurateRip database
Copy OK

Track 6

Filename C:\EAC\Crime & The City Solution - American Twilight\06 - Beyond Good And Evil.wav

Peak level 94.4 %
Extraction speed 3.8 X
Track quality 99.9 %
Test CRC 3B2D7CCA
Copy CRC 3B2D7CCA
Track not present in AccurateRip database
Copy OK

Track 7

Filename C:\EAC\Crime & The City Solution - American Twilight\07 - American Twilight.wav

Peak level 94.4 %
Extraction speed 4.3 X
Track quality 99.9 %
Test CRC 34DC961D
Copy CRC 34DC961D
Track not present in AccurateRip database
Copy OK

Track 8

Filename C:\EAC\Crime & The City Solution - American Twilight\08 - Streets Of West Memphis.wav

Peak level 94.3 %
Extraction speed 5.0 X
Track quality 100.0 %
Test CRC 8B9AC0C1
Copy CRC 8B9AC0C1
Track not present in AccurateRip database
Copy OK


None of the tracks are present in the AccurateRip database

No errors occurred

End of status report

–– CUETools DB Plugin V2.1.3

[CTDB TOCID: yQwtxI6CoLmNtdOU._PUy7z7C84-] found, Submit result: yQwtxI6CoLmNtdOU._PUy7z7C84- has been confirmed
[4b782633] (1/1) Accurately ripped


==== Log checksum 614A71C1E3BE3C89A5E398ED1B91016D5C99C5765B7DC06CCE86B229A87DDF32 ====

All thanks go to the What.CD

More Music in My Blog
Follow My RSS Channel